  0
SECTION
  2
HEADER
  9
$ACADVER
  1
AC1009
  9
$INSBASE
 10
0.0
 20
0.0
 30
0.0
  9
$EXTMIN
 10
-0.3445096000687045
 20
-0.1607582844699209
 30
-0.0000000000000058
  9
$EXTMAX
 10
7809.3688187977777488
 20
5446.6257578033955724
 30
0.0000000000000104
  9
$LIMMIN
 10
0.0
 20
0.0
  9
$LIMMAX
 10
8400.0
 20
5940.0
  9
$ORTHOMODE
 70
     0
  9
$REGENMODE
 70
     1
  9
$FILLMODE
 70
     1
  9
$QTEXTMODE
 70
     0
  9
$MIRRTEXT
 70
     0
  9
$DRAGMODE
 70
     2
  9
$LTSCALE
 40
200.0
  9
$OSMODE
 70
    47
  9
$ATTMODE
 70
     1
  9
$TEXTSIZE
 40
0.2
  9
$TRACEWID
 40
0.05
  9
$TEXTSTYLE
  7
STANDARD
  9
$CLAYER
  8
0
  9
$CELTYPE
  6
BYLAYER
  9
$CECOLOR
 62
     7
  9
$DIMSCALE
 40
20.0
  9
$DIMASZ
 40
2.0
  9
$DIMEXO
 40
1.0
  9
$DIMDLI
 40
0.0
  9
$DIMRND
 40
0.0
  9
$DIMDLE
 40
0.0
  9
$DIMEXE
 40
1.0
  9
$DIMTP
 40
0.0
  9
$DIMTM
 40
0.0
  9
$DIMTXT
 40
2.5
  9
$DIMCEN
 40
-1.0
  9
$DIMTSZ
 40
0.0
  9
$DIMTOL
 70
     0
  9
$DIMLIM
 70
     0
  9
$DIMTIH
 70
     0
  9
$DIMTOH
 70
     0
  9
$DIMSE1
 70
     0
  9
$DIMSE2
 70
     0
  9
$DIMTAD
 70
     1
  9
$DIMZIN
 70
     8
  9
$DIMBLK
  1

  9
$DIMASO
 70
     1
  9
$DIMSHO
 70
     1
  9
$DIMPOST
  1

  9
$DIMAPOST
  1

  9
$DIMALT
 70
     0
  9
$DIMALTD
 70
     2
  9
$DIMALTF
 40
25.3999999999999986
  9
$DIMLFAC
 40
0.9999999999999998
  9
$DIMTOFL
 70
     1
  9
$DIMTVP
 40
0.8333333333333333
  9
$DIMTIX
 70
     1
  9
$DIMSOXD
 70
     0
  9
$DIMSAH
 70
     1
  9
$DIMBLK1
  1
YA
  9
$DIMBLK2
  1
YA
  9
$DIMSTYLE
  2
YA
  9
$DIMCLRD
 70
     2
  9
$DIMCLRE
 70
     2
  9
$DIMCLRT
 70
     2
  9
$DIMTFAC
 40
0.5
  9
$DIMGAP
 40
1.0
  9
$LUNITS
 70
     2
  9
$LUPREC
 70
     3
  9
$SKETCHINC
 40
0.1
  9
$FILLETRAD
 40
0.0
  9
$AUNITS
 70
     0
  9
$AUPREC
 70
     3
  9
$MENU
  1
acad
  9
$ELEVATION
 40
0.0
  9
$PELEVATION
 40
0.0
  9
$THICKNESS
 40
0.0
  9
$LIMCHECK
 70
     0
  9
$BLIPMODE
 70
     0
  9
$CHAMFERA
 40
0.0
  9
$CHAMFERB
 40
0.0
  9
$SKPOLY
 70
     0
  9
$TDCREATE
 40
2449171.7656481480225921
  9
$TDUPDATE
 40
2459788.6259490740485489
  9
$TDINDWG
 40
0.0584130556
  9
$TDUSRTIMER
 40
0.0584130556
  9
$USRTIMER
 70
     1
  9
$ANGBASE
 50
0.0
  9
$ANGDIR
 70
     0
  9
$PDMODE
 70
     0
  9
$PDSIZE
 40
0.0
  9
$PLINEWID
 40
0.0
  9
$COORDS
 70
     1
  9
$SPLFRAME
 70
     0
  9
$SPLINETYPE
 70
     6
  9
$SPLINESEGS
 70
     8
  9
$ATTDIA
 70
     1
  9
$ATTREQ
 70
     1
  9
$HANDLING
 70
     1
  9
$HANDSEED
  5
2752
  9
$SURFTAB1
 70
     6
  9
$SURFTAB2
 70
     6
  9
$SURFTYPE
 70
     6
  9
$SURFU
 70
     6
  9
$SURFV
 70
     6
  9
$UCSNAME
  2

  9
$UCSORG
 10
0.0
 20
0.0
 30
0.0
  9
$UCSXDIR
 10
1.0
 20
0.0
 30
0.0
  9
$UCSYDIR
 10
0.0
 20
1.0
 30
0.0
  9
$PUCSNAME
  2

  9
$PUCSORG
 10
0.0
 20
0.0
 30
0.0
  9
$PUCSXDIR
 10
1.0
 20
0.0
 30
0.0
  9
$PUCSYDIR
 10
0.0
 20
1.0
 30
0.0
  9
$USERI1
 70
     0
  9
$USERI2
 70
     0
  9
$USERI3
 70
     0
  9
$USERI4
 70
     0
  9
$USERI5
 70
     0
  9
$USERR1
 40
0.0
  9
$USERR2
 40
0.0
  9
$USERR3
 40
0.0
  9
$USERR4
 40
0.0
  9
$USERR5
 40
0.0
  9
$WORLDVIEW
 70
     1
  9
$SHADEDGE
 70
     3
  9
$SHADEDIF
 70
    70
  9
$TILEMODE
 70
     1
  9
$MAXACTVP
 70
    16
  9
$PLIMCHECK
 70
     0
  9
$PEXTMIN
 10
1.0000000000000000E+20
 20
1.0000000000000000E+20
 30
1.0000000000000000E+20
  9
$PEXTMAX
 10
-1.0000000000000000E+20
 20
-1.0000000000000000E+20
 30
-1.0000000000000000E+20
  9
$PLIMMIN
 10
0.0
 20
0.0
  9
$PLIMMAX
 10
12.0
 20
9.0
  9
$UNITMODE
 70
     0
  9
$VISRETAIN
 70
     0
  9
$PLINEGEN
 70
     0
  9
$PSLTSCALE
 70
     1
  0
ENDSEC
  0
SECTION
  2
TABLES
  0
TABLE
  2
VPORT
 70
     1
  0
VPORT
  2
*ACTIVE
 70
     0
 10
0.0
 20
0.0
 11
1.0
 21
1.0
 12
4199.8277451999665573
 22
2969.9196208577650395
 13
0.0
 23
0.0
 14
1.0
 24
1.0
 15
0.0
 25
0.0
 16
0.0
 26
0.0
 36
1.0
 17
0.0
 27
0.0
 37
0.0
 40
5985.1619761502597612
 41
2.348925410872313
 42
50.0
 43
0.0
 44
0.0
 50
0.0
 51
0.0
 71
     0
 72
 20000
 73
     1
 74
     1
 75
     0
 76
     0
 77
     0
 78
     0
  0
ENDTAB
  0
TABLE
  2
LTYPE
 70
     8
  0
LTYPE
  2
CONTINUOUS
 70
     0
  3
Solid line
 72
    65
 73
     0
 40
0.0
  0
LTYPE
  2
HIDDEN
 70
     0
  3
__ __ __ __ __ __ __ __ __ __ __ __ __ __ __ __
 72
    65
 73
     2
 40
0.375
 49
0.25
 49
-0.125
  0
LTYPE
  2
PHANTOM
 70
     0
  3
______  __  __  ______  __  __  ______  __  __ 
 72
    65
 73
     6
 40
2.5
 49
1.25
 49
-0.25
 49
0.25
 49
-0.25
 49
0.25
 49
-0.25
  0
LTYPE
  2
CENTER2
 70
     0
  3
___ _ ___ _ ___ _ ___ _ ___ _ ___ _ ___ _ ___ _
 72
    65
 73
     4
 40
1.125
 49
0.75
 49
-0.125
 49
0.125
 49
-0.125
  0
LTYPE
  2
PHANTOM2
 70
     0
  3
___ _ _ ___ _ _ ___ _ _ ___ _ _ ___ _ _ ___ _ _
 72
    65
 73
     6
 40
1.25
 49
0.625
 49
-0.125
 49
0.125
 49
-0.125
 49
0.125
 49
-0.125
  0
LTYPE
  2
HIDDEN2
 70
     0
  3
Hidden (.5x) _ _ _ _ _ _ _ _ _ _ _ _ _ _ _ _ _
 72
    65
 73
     2
 40
0.1875
 49
0.125
 49
-0.0625
  0
ENDTAB
  0
TABLE
  2
LAYER
 70
     5
  0
LAYER
  2
0
 70
     0
 62
     7
  6
CONTINUOUS
  0
LAYER
  2
WAKU
 70
     1
 62
     7
  6
CONTINUOUS
  0
LAYER
  2
DEFPOINTS
 70
     0
 62
     7
  6
CONTINUOUS
  0
LAYER
  2
壁
 70
     0
 62
     7
  6
CONTINUOUS
  0
ENDTAB
  0
TABLE
  2
STYLE
 70
     3
  0
STYLE
  2
STANDARD
 70
     0
 40
0.0
 41
0.8
 50
0.0
 71
     0
 42
0.2
  3
simplex.shx
  4
extfont.shx
  0
STYLE
  2
\U+FF7D\U+FF80\U+FF72\U+FF991
 70
     0
 40
2.7000000000000002
 41
0.9
 50
0.0
 71
     0
 42
2.7000000000000002
  3
romans.shx
  4
bigfont.shx
  0
ENDTAB
  0
TABLE
  2
VIEW
 70
     0
  0
ENDTAB
  0
TABLE
  2
UCS
 70
     0
  0
ENDTAB
  0
TABLE
  2
APPID
 70
    12
  0
APPID
  2
ACAD
 70
     0
  0
APPID
  2
ACAD_NAV_VCDISPLAY
 70
     0
  0
APPID
  2
ACAD_MLEADERVER
 70
     0
  0
APPID
  2
GENIUS_GENREC_14
 70
     0
  0
APPID
  2
GENIUS_GENODEF_13
 70
     0
  0
APPID
  2
GENIUS_GENOBJ-N-REC_13
 70
     0
  0
APPID
  2
GENIUS_GENOBJ-N-CEN_13
 70
     0
  0
APPID
  2
ACAD_PSEXT
 70
     0
  0
APPID
  2
ACAECLAYERSTANDARD
 70
     0
  0
APPID
  2
ACDBDYNAMICBLOCKGUID
 70
     0
  0
APPID
  2
ACCMTRANSPARENCY
 70
     0
  0
APPID
  2
ACAD_EXEMPT_FROM_CAD_STANDARDS
 70
     0
  0
ENDTAB
  0
TABLE
  2
DIMSTYLE
 70
     1
  0
DIMSTYLE
  2
YA
 70
     0
  3

  4

  5

  6
YA
  7
YA
 40
20.0
 41
2.0
 42
1.0
 43
0.0
 44
1.0
 45
0.0
 46
0.0
 47
0.0
 48
0.0
140
2.5
141
-1.0
142
0.0
143
25.3999999999999986
144
0.9999999999999998
145
0.8333333333333333
146
0.5
147
1.0
 71
     0
 72
     0
 73
     0
 74
     0
 75
     0
 76
     0
 77
     1
 78
     8
170
     0
171
     2
172
     1
173
     1
174
     1
175
     0
176
     2
177
     2
178
     2
  0
ENDTAB
  0
ENDSEC
  0
SECTION
  2
BLOCKS
  0
BLOCK
  8
0
 62
     7
  2
$MODEL_SPACE
 70
     0
 10
0.0
 20
0.0
 30
0.0
  3
$MODEL_SPACE
  1

  0
ENDBLK
  5
34
  8
0
 62
     7
  0
BLOCK
 67
     1
  8
0
 62
     7
  2
$PAPER_SPACE
 70
     0
 10
0.0
 20
0.0
 30
0.0
  3
$PAPER_SPACE
  1

  0
ENDBLK
  5
32
 67
     1
  8
0
 62
     7
  0
BLOCK
  8
0
  2
YA
 70
     0
 10
0.0
 20
0.0
 30
0.0
  3
YA
  1

  0
LINE
  5
41
  8
0
 62
     2
 10
0.0
 20
0.0
 30
0.0
 11
-0.9659258262890944
 21
0.2588190451025127
 31
0.0
  0
LINE
  5
42
  8
0
 62
     2
 10
0.0
 20
0.0
 30
0.0
 11
-0.9659258262890944
 21
-0.2588190451025127
 31
0.0
  0
LINE
  5
43
  8
0
 62
     2
 10
0.0
 20
0.0
 30
0.0
 11
-1.0
 21
0.0
 31
0.0
  0
ENDBLK
  5
44
  8
0
  0
BLOCK
  8
0
 62
     7
  2
A$C0DC71B30
 70
     0
 10
0.0
 20
0.0
 30
0.0
  3
A$C0DC71B30
  1

  0
LINE
  5
2EF
  8
0
  6
CONTINUOUS
 62
     3
 10
36.0000591517737192
 20
410.0001030287339177
 30
0.0
 11
41.0000591517673385
 21
410.0001030287456842
 31
0.0
  0
LINE
  5
2F0
  8
0
  6
CONTINUOUS
 62
     3
 10
41.0000591515690687
 20
408.4955409697549271
 30
0.0
 11
41.0000591517673385
 21
410.0001030287456842
 31
0.0
  0
LINE
  5
2F1
  8
0
  6
CONTINUOUS
 62
     3
 10
36.0000591521002207
 20
408.4955409697540176
 30
0.0
 11
36.0000591517737192
 21
410.0001030287339177
 31
0.0
  0
LINE
  5
2F2
  8
0
  6
CONTINUOUS
 62
     3
 10
23.5000591517637112
 20
11.6333400287321602
 30
0.0
 11
53.5000591517637076
 21
11.6333400287321602
 31
0.0
  0
LINE
  5
2F3
  8
0
  6
CONTINUOUS
 62
     3
 10
6.6161021517636982
 20
6.5001030287321546
 30
0.0
 11
70.3840161517637171
 21
6.5001030287321546
 31
0.0
  0
LINE
  5
2F4
  8
0
  6
CONTINUOUS
 62
     3
 10
6.1422231517644832
 20
5.5001030287321546
 30
0.0
 11
70.8578951517629321
 21
5.5001030287321546
 31
0.0
  0
LINE
  5
2F5
  8
0
  6
CONTINUOUS
 62
     3
 10
23.5000591517637112
 20
2.5001030287321551
 30
0.0
 11
53.5000591517637076
 21
2.5001030287321551
 31
0.0
  0
LINE
  5
2F6
  8
0
  6
CONTINUOUS
 62
     3
 10
1.500059151763707
 20
11.0001030287321502
 30
0.0
 11
2.2740161517649531
 21
11.6333400287321602
 31
0.0
  0
LINE
  5
2F7
  8
0
  6
CONTINUOUS
 62
     3
 10
6.3839151517640849
 20
6.6101310287313018
 30
0.0
 11
2.2740161517649531
 21
11.6333400287321602
 31
0.0
  0
LINE
  5
2F8
  8
0
  6
CONTINUOUS
 62
     3
 10
5.9100351517627132
 20
5.6101310287313018
 30
0.0
 11
1.500059151763707
 21
11.0001030287321502
 31
0.0
  0
LINE
  5
2F9
  8
0
  6
CONTINUOUS
 62
     3
 10
26.5000591517637112
 20
0.0001030287321555
 30
0.0
 11
50.5000591517637005
 21
0.0001030287321555
 31
0.0
  0
LINE
  5
2FA
  8
0
  6
CONTINUOUS
 62
     3
 10
26.5000591517637112
 20
2.5001030287321551
 30
0.0
 11
26.5000591517637112
 21
0.0001030287321555
 31
0.0
  0
LINE
  5
2FB
  8
0
  6
CONTINUOUS
 62
     3
 10
23.0000591517637112
 20
5.5001030287321546
 30
0.0
 11
23.0000591517637112
 21
0.0001030287321555
 31
0.0
  0
LINE
  5
2FC
  8
0
  6
CONTINUOUS
 62
     3
 10
23.5000591517637112
 20
0.0001030287321555
 30
0.0
 11
23.0000591517637112
 21
0.0001030287321555
 31
0.0
  0
LINE
  5
2FD
  8
0
  6
CONTINUOUS
 62
     3
 10
50.5000591517637005
 20
2.5001030287321551
 30
0.0
 11
50.5000591517637005
 21
0.0001030287321555
 31
0.0
  0
LINE
  5
2FE
  8
0
  6
CONTINUOUS
 62
     3
 10
70.6162031517633295
 20
6.6101310287313018
 30
0.0
 11
74.7261021517642803
 21
11.6333400287321602
 31
0.0
  0
LINE
  5
2FF
  8
0
  6
CONTINUOUS
 62
     3
 10
54.0000591517637076
 20
5.5001030287321546
 30
0.0
 11
54.0000591517637076
 21
0.0001030287321555
 31
0.0
  0
LINE
  5
300
  8
0
  6
CONTINUOUS
 62
     3
 10
54.0000591517637076
 20
0.0001030287321555
 30
0.0
 11
53.5000591517637076
 21
0.0001030287321555
 31
0.0
  0
LINE
  5
301
  8
0
  6
CONTINUOUS
 62
     3
 10
74.7261021517642803
 20
11.6333400287321602
 30
0.0
 11
75.5000591517636934
 21
11.0001030287321502
 31
0.0
  0
LINE
  5
302
  8
0
  6
CONTINUOUS
 62
     3
 10
71.0900821517643635
 20
5.6101310287313018
 30
0.0
 11
75.5000591517636934
 21
11.0001030287321502
 31
0.0
  0
LINE
  5
303
  8
0
  6
CONTINUOUS
 62
     3
 10
58.750059151768248
 20
208.500103028713113
 30
0.0
 11
58.750059151768248
 21
247.6644002080392966
 31
0.0
  0
LINE
  5
304
  8
0
  6
CONTINUOUS
 62
     3
 10
0.0000591517355133
 20
209.0001030287340029
 30
0.0
 11
0.0000591517582507
 21
214.0001030287421884
 31
0.0
  0
LINE
  5
305
  8
0
  6
CONTINUOUS
 62
     3
 10
1.500059151761888
 20
209.0001030287594972
 30
0.0
 11
0.0000591517355133
 21
209.0001030287340029
 31
0.0
  0
LINE
  5
306
  8
0
  6
CONTINUOUS
 62
     3
 10
1.500059151761888
 20
214.0001030287621973
 30
0.0
 11
0.0000591517582507
 21
214.0001030287421884
 31
0.0
  0
LINE
  5
307
  8
0
  6
CONTINUOUS
 62
     3
 10
77.0000591517955399
 20
209.0001030287340029
 30
0.0
 11
77.0000591517728026
 21
214.0001030287421884
 31
0.0
  0
LINE
  5
308
  8
0
  6
CONTINUOUS
 62
     3
 10
75.5000591517691646
 20
209.0001030287594972
 30
0.0
 11
77.0000591517955399
 21
209.0001030287340029
 31
0.0
  0
LINE
  5
309
  8
0
  6
CONTINUOUS
 62
     3
 10
75.5000591517691646
 20
214.0001030287621973
 30
0.0
 11
77.0000591517728026
 21
214.0001030287421884
 31
0.0
  0
LINE
  5
30A
  8
0
  6
CONTINUOUS
 62
     3
 10
75.5000591517527937
 20
180.5001030287021138
 30
0.0
 11
75.5000591517818833
 21
402.7467445368255881
 31
0.0
  0
LINE
  5
30B
  8
0
  6
CONTINUOUS
 62
     3
 10
1.5000591517627979
 20
180.5001030287193942
 30
0.0
 11
1.500059151750065
 21
402.7467445368329209
 31
0.0
  0
LINE
  5
30C
  8
0
  6
CONTINUOUS
 62
     3
 10
32.5000591518137298
 20
153.5001030287048138
 30
0.0
 11
25.5000591517582507
 21
153.5001030287176036
 31
0.0
  0
LINE
  5
30D
  8
0
  6
CONTINUOUS
 62
     3
 10
56.5000591517773501
 20
158.500103028725789
 30
0.0
 11
10.5000591517609791
 21
158.5001030287230037
 31
0.0
  0
LINE
  5
30E
  8
0
  6
CONTINUOUS
 62
     3
 10
25.5000591515963606
 20
158.5001030287239132
 30
0.0
 11
25.5000591517582507
 21
153.5001030287176036
 31
0.0
  0
LINE
  5
30F
  8
0
  6
CONTINUOUS
 62
     3
 10
32.5000591520583768
 20
158.500103028724908
 30
0.0
 11
32.5000591518137298
 21
153.5001030287048138
 31
0.0
  0
LINE
  5
310
  8
0
  6
CONTINUOUS
 62
     3
 10
10.5000591517609791
 20
158.5001030287230037
 30
0.0
 11
10.5000591517764406
 21
197.0001030287239132
 31
0.0
  0
LINE
  5
311
  8
0
  6
CONTINUOUS
 62
     3
 10
56.5000591517773501
 20
158.500103028725789
 30
0.0
 11
56.5000591517682622
 21
197.0001030287585024
 31
0.0
  0
LINE
  5
312
  8
0
  6
CONTINUOUS
 62
     3
 10
56.5000591517673385
 20
180.5001030287066897
 30
0.0
 11
75.5000591517527937
 21
180.500103028724908
 31
0.0
  0
LINE
  5
313
  8
0
  6
CONTINUOUS
 62
     3
 10
1.5000591517627979
 20
180.5001030287012043
 30
0.0
 11
10.5000591517809898
 21
180.500103028724908
 31
0.0
  0
LINE
  5
314
  8
0
  6
CONTINUOUS
 62
     3
 10
53.5000591517646171
 20
158.5001030287266985
 30
0.0
 11
53.5000591517682622
 21
6.5001030287376116
 31
0.0
  0
LINE
  5
315
  8
0
  6
CONTINUOUS
 62
     3
 10
42.0000591517673385
 20
158.500103028724908
 30
0.0
 11
42.0000591517655266
 21
15.1618419186224802
 31
0.0
  0
LINE
  5
316
  8
0
  6
CONTINUOUS
 62
     3
 10
35.0000591517646171
 20
158.500103028724908
 30
0.0
 11
35.0000591517664432
 21
15.1968136961195306
 31
0.0
  0
LINE
  5
317
  8
0
  6
CONTINUOUS
 62
     3
 10
23.5000591517591602
 20
158.5001030287239132
 30
0.0
 11
23.5000591517618886
 21
6.5001030287376116
 31
0.0
  0
LINE
  5
318
  8
0
  6
CONTINUOUS
 62
     3
 10
18.25005915177098
 20
214.2174634536503959
 30
0.0
 11
18.250059151766429
 21
247.6644002080593054
 31
0.0
  0
LINE
  5
319
  8
0
  6
CONTINUOUS
 62
     3
 10
4.5000591518492001
 20
201.0001030287922106
 30
0.0
 11
4.500059151863752
 21
206.0001030287284891
 31
0.0
  0
LINE
  5
31A
  8
0
  6
CONTINUOUS
 62
     3
 10
7.0000591518728461
 20
208.500103028727608
 30
0.0
 11
13.5814748646343997
 21
208.5001030287002948
 31
0.0
  0
LINE
  5
31B
  8
0
  6
CONTINUOUS
 62
     3
 10
7.0000591518519277
 20
198.5001030290495123
 30
0.0
 11
10.5490243167750997
 21
198.5001030287957917
 31
0.0
  0
LINE
  5
31C
  8
0
  6
CONTINUOUS
 62
     3
 10
72.5000591517700741
 20
201.0001030287521928
 30
0.0
 11
72.5000591517755311
 21
206.0001030287421884
 31
0.0
  0
LINE
  5
31D
  8
0
  6
CONTINUOUS
 62
     3
 10
70.0000591517764406
 20
208.5001030286703099
 30
0.0
 11
53.4186434390021603
 21
208.5001030287203037
 31
0.0
  0
LINE
  5
31E
  8
0
  6
CONTINUOUS
 62
     3
 10
56.4510939869114665
 20
198.5001030287467074
 30
0.0
 11
70.0000591517673456
 21
198.5001030286757953
 31
0.0
  0
LINE
  5
31F
  8
0
  6
CONTINUOUS
 62
     3
 10
72.5000591517755311
 20
392.881439245783497
 30
0.0
 11
72.5000591517764406
 21
180.5001030288995025
 31
0.0
  0
LINE
  5
320
  8
0
  6
CONTINUOUS
 62
     3
 10
4.5000591517282373
 20
392.8814392457916256
 30
0.0
 11
4.5000591517264183
 21
180.5001030287212131
 31
0.0
  0
LINE
  5
321
  8
0
  6
CONTINUOUS
 62
     3
 10
72.5000591517755311
 20
397.6557870656807268
 30
0.0
 11
74.2046356355103853
 21
403.24925022835032
 31
0.0
  0
LINE
  5
322
  8
0
  6
CONTINUOUS
 62
     3
 10
4.5000591517591602
 20
397.6557870656807268
 30
0.0
 11
2.795482668024305
 21
403.24925022835032
 31
0.0
  0
CIRCLE
  5
323
  8
0
  6
CONTINUOUS
 62
     3
 10
38.5000591517637076
 20
238.0001030287112087
 30
0.0
 40
2.5
  0
ARC
  5
324
  8
0
  6
CONTINUOUS
 62
     3
 10
70.5000591517782595
 20
402.7467445368264976
 30
0.0
 40
5.0
 50
0.0
 51
87.3027318660789859
  0
ARC
  5
325
  8
0
  6
CONTINUOUS
 62
     3
 10
38.5000591516336499
 20
-276.4998969827136079
 30
0.0
 40
685.0000000114554268
 50
87.3027318660920031
 51
92.697268133881991
  0
ARC
  5
326
  8
0
  6
CONTINUOUS
 62
     3
 10
6.5000591517500652
 20
402.7467445368329209
 30
0.0
 40
5.0
 50
92.6972681339730684
 51
180.0
  0
ARC
  5
327
  8
0
  6
CONTINUOUS
 62
     3
 10
6.6161021517636982
 20
6.800103028731427
 30
0.0
 40
0.3
 50
219.2894069999834983
 51
270.0
  0
ARC
  5
328
  8
0
  6
CONTINUOUS
 62
     3
 10
6.1422231517644832
 20
5.800103028731427
 30
0.0
 40
0.3
 50
219.2894069999834983
 51
270.0
  0
ARC
  5
329
  8
0
  6
CONTINUOUS
 62
     3
 10
70.8578951517629321
 20
5.800103028731427
 30
0.0
 40
0.3
 50
270.0
 51
320.7105930000165017
  0
ARC
  5
32A
  8
0
  6
CONTINUOUS
 62
     3
 10
70.3840161517637171
 20
6.800103028731427
 30
0.0
 40
0.3
 50
270.0
 51
320.7105930000165017
  0
ARC
  5
32B
  8
0
  6
CONTINUOUS
 62
     3
 10
54.7500591517691575
 20
247.6644002080383871
 30
0.0
 40
4.0
 50
0.0
 51
80.6020339034328401
  0
ARC
  5
32C
  8
0
  6
CONTINUOUS
 62
     3
 10
38.5000591517500723
 20
149.4844780286138928
 30
0.0
 40
103.5156250000995044
 50
80.6020339034199935
 51
99.3979660965671741
  0
ARC
  5
32D
  8
0
  6
CONTINUOUS
 62
     3
 10
22.2500591517664397
 20
247.6644002080593054
 30
0.0
 40
4.0
 50
99.3979660965264742
 51
180.0
  0
ARC
  5
32E
  8
0
  6
CONTINUOUS
 62
     3
 10
33.5000591517318824
 20
197.0001030287349124
 30
0.0
 40
22.9999999999927205
 50
0.0000000000521102
 51
180.0000000000260059
  0
ARC
  5
32F
  8
0
  6
CONTINUOUS
 62
     3
 10
38.5000591517664432
 20
227.5001030287112087
 30
0.0
 40
13.0
 50
302.8953169095287876
 51
359.9999999999217835
  0
ARC
  5
330
  8
0
  6
CONTINUOUS
 62
     3
 10
38.5000591517664432
 20
227.5001030287112087
 30
0.0
 40
13.0
 50
0.0
 51
218.4848027403733965
  0
ARC
  5
331
  8
0
  6
CONTINUOUS
 62
     3
 10
7.000059151863752
 20
206.0001030287293986
 30
0.0
 40
2.5
 50
89.9999999997915552
 51
180.0
  0
ARC
  5
332
  8
0
  6
CONTINUOUS
 62
     3
 10
7.0000591518501087
 20
201.0001030287922106
 30
0.0
 40
2.5
 50
180.0
 51
270.0000000000521254
  0
ARC
  5
333
  8
0
  6
CONTINUOUS
 62
     3
 10
70.0000591517755311
 20
206.0001030287421884
 30
0.0
 40
2.5
 50
0.0
 51
89.9999999999869686
  0
ARC
  5
334
  8
0
  6
CONTINUOUS
 62
     3
 10
70.0000591517709836
 20
201.0001030287531023
 30
0.0
 40
2.5
 50
269.9999999999088232
 51
359.9999999999740226
  0
ARC
  5
335
  8
0
  6
CONTINUOUS
 62
     3
 10
67.5000591517755311
 20
392.881439245783497
 30
0.0
 40
5.0
 50
0.0
 51
87.555762220299215
  0
ARC
  5
336
  8
0
  6
CONTINUOUS
 62
     3
 10
38.5000591516363784
 20
-286.4998969826826851
 30
0.0
 40
685.0000000114554268
 50
87.5557622202471748
 51
92.4442377797397938
  0
ARC
  5
337
  8
0
  6
CONTINUOUS
 62
     3
 10
9.5000591517255089
 20
392.8814392457916256
 30
0.0
 40
5.0
 50
92.4442377796877537
 51
180.0
  0
POLYLINE
  5
338
  8
0
  6
CONTINUOUS
 62
     3
 10
35.0000591517637076
 20
15.1968138840893481
 30
0.0
 66
     1
 70
     8
  0
VERTEX
  8
0
  5
24C8
 10
35.0001
 20
15.1968
 30
0.00000
  70
    32
  0
VERTEX
  8
0
  5
24C9
 10
35.0038
 20
15.1201
 30
0.00000
  70
    32
  0
VERTEX
  8
0
  5
24CA
 10
35.0160
 20
15.0435
 30
0.00000
  70
    32
  0
VERTEX
  8
0
  5
24CB
 10
35.0365
 20
14.9673
 30
0.00000
  70
    32
  0
VERTEX
  8
0
  5
24CC
 10
35.0654
 20
14.8915
 30
0.00000
  70
    32
  0
VERTEX
  8
0
  5
24CD
 10
35.1026
 20
14.8164
 30
0.00000
  70
    32
  0
VERTEX
  8
0
  5
24CE
 10
35.1479
 20
14.7422
 30
0.00000
  70
    32
  0
VERTEX
  8
0
  5
24CF
 10
35.2014
 20
14.6690
 30
0.00000
  70
    32
  0
VERTEX
  8
0
  5
24D0
 10
35.2627
 20
14.5971
 30
0.00000
  70
    32
  0
VERTEX
  8
0
  5
24D1
 10
35.3319
 20
14.5265
 30
0.00000
  70
    32
  0
VERTEX
  8
0
  5
24D2
 10
35.4087
 20
14.4575
 30
0.00000
  70
    32
  0
VERTEX
  8
0
  5
24D3
 10
35.4930
 20
14.3903
 30
0.00000
  70
    32
  0
VERTEX
  8
0
  5
24D4
 10
35.5845
 20
14.3249
 30
0.00000
  70
    32
  0
VERTEX
  8
0
  5
24D5
 10
35.6830
 20
14.2615
 30
0.00000
  70
    32
  0
VERTEX
  8
0
  5
24D6
 10
35.7883
 20
14.2004
 30
0.00000
  70
    32
  0
VERTEX
  8
0
  5
24D7
 10
35.9002
 20
14.1416
 30
0.00000
  70
    32
  0
VERTEX
  8
0
  5
24D8
 10
36.0183
 20
14.0853
 30
0.00000
  70
    32
  0
VERTEX
  8
0
  5
24D9
 10
36.1424
 20
14.0317
 30
0.00000
  70
    32
  0
VERTEX
  8
0
  5
24DA
 10
36.2721
 20
13.9807
 30
0.00000
  70
    32
  0
VERTEX
  8
0
  5
24DB
 10
36.4073
 20
13.9327
 30
0.00000
  70
    32
  0
VERTEX
  8
0
  5
24DC
 10
36.5475
 20
13.8877
 30
0.00000
  70
    32
  0
VERTEX
  8
0
  5
24DD
 10
36.6923
 20
13.8457
 30
0.00000
  70
    32
  0
VERTEX
  8
0
  5
24DE
 10
36.8416
 20
13.8070
 30
0.00000
  70
    32
  0
VERTEX
  8
0
  5
24DF
 10
36.9948
 20
13.7715
 30
0.00000
  70
    32
  0
VERTEX
  8
0
  5
24E0
 10
37.1517
 20
13.7395
 30
0.00000
  70
    32
  0
VERTEX
  8
0
  5
24E1
 10
37.3118
 20
13.7109
 30
0.00000
  70
    32
  0
VERTEX
  8
0
  5
24E2
 10
37.4747
 20
13.6858
 30
0.00000
  70
    32
  0
VERTEX
  8
0
  5
24E3
 10
37.6402
 20
13.6643
 30
0.00000
  70
    32
  0
VERTEX
  8
0
  5
24E4
 10
37.8077
 20
13.6464
 30
0.00000
  70
    32
  0
VERTEX
  8
0
  5
24E5
 10
37.9769
 20
13.6323
 30
0.00000
  70
    32
  0
VERTEX
  8
0
  5
24E6
 10
38.1473
 20
13.6218
 30
0.00000
  70
    32
  0
VERTEX
  8
0
  5
24E7
 10
38.3186
 20
13.6151
 30
0.00000
  70
    32
  0
VERTEX
  8
0
  5
24E8
 10
38.4903
 20
13.6121
 30
0.00000
  70
    32
  0
VERTEX
  8
0
  5
24E9
 10
38.6621
 20
13.6130
 30
0.00000
  70
    32
  0
VERTEX
  8
0
  5
24EA
 10
38.8334
 20
13.6175
 30
0.00000
  70
    32
  0
VERTEX
  8
0
  5
24EB
 10
39.0040
 20
13.6259
 30
0.00000
  70
    32
  0
VERTEX
  8
0
  5
24EC
 10
39.1733
 20
13.6379
 30
0.00000
  70
    32
  0
VERTEX
  8
0
  5
24ED
 10
39.3410
 20
13.6537
 30
0.00000
  70
    32
  0
VERTEX
  8
0
  5
24EE
 10
39.5067
 20
13.6731
 30
0.00000
  70
    32
  0
VERTEX
  8
0
  5
24EF
 10
39.6700
 20
13.6961
 30
0.00000
  70
    32
  0
VERTEX
  8
0
  5
24F0
 10
39.8304
 20
13.7228
 30
0.00000
  70
    32
  0
VERTEX
  8
0
  5
24F1
 10
39.9877
 20
13.7529
 30
0.00000
  70
    32
  0
VERTEX
  8
0
  5
24F2
 10
40.1413
 20
13.7864
 30
0.00000
  70
    32
  0
VERTEX
  8
0
  5
24F3
 10
40.2911
 20
13.8233
 30
0.00000
  70
    32
  0
VERTEX
  8
0
  5
24F4
 10
40.4364
 20
13.8634
 30
0.00000
  70
    32
  0
VERTEX
  8
0
  5
24F5
 10
40.5772
 20
13.9067
 30
0.00000
  70
    32
  0
VERTEX
  8
0
  5
24F6
 10
40.7129
 20
13.9530
 30
0.00000
  70
    32
  0
VERTEX
  8
0
  5
24F7
 10
40.8433
 20
14.0023
 30
0.00000
  70
    32
  0
VERTEX
  8
0
  5
24F8
 10
40.9680
 20
14.0544
 30
0.00000
  70
    32
  0
VERTEX
  8
0
  5
24F9
 10
41.0868
 20
14.1093
 30
0.00000
  70
    32
  0
VERTEX
  8
0
  5
24FA
 10
41.1994
 20
14.1666
 30
0.00000
  70
    32
  0
VERTEX
  8
0
  5
24FB
 10
41.3055
 20
14.2265
 30
0.00000
  70
    32
  0
VERTEX
  8
0
  5
24FC
 10
41.4048
 20
14.2886
 30
0.00000
  70
    32
  0
VERTEX
  8
0
  5
24FD
 10
41.4971
 20
14.3528
 30
0.00000
  70
    32
  0
VERTEX
  8
0
  5
24FE
 10
41.5822
 20
14.4190
 30
0.00000
  70
    32
  0
VERTEX
  8
0
  5
24FF
 10
41.6599
 20
14.4870
 30
0.00000
  70
    32
  0
VERTEX
  8
0
  5
2500
 10
41.7299
 20
14.5567
 30
0.00000
  70
    32
  0
VERTEX
  8
0
  5
2501
 10
41.7922
 20
14.6279
 30
0.00000
  70
    32
  0
VERTEX
  8
0
  5
2502
 10
41.8465
 20
14.7004
 30
0.00000
  70
    32
  0
VERTEX
  8
0
  5
2503
 10
41.8928
 20
14.7741
 30
0.00000
  70
    32
  0
VERTEX
  8
0
  5
2504
 10
41.9309
 20
14.8487
 30
0.00000
  70
    32
  0
VERTEX
  8
0
  5
2505
 10
41.9607
 20
14.9241
 30
0.00000
  70
    32
  0
VERTEX
  8
0
  5
2506
 10
41.9822
 20
15.0001
 30
0.00000
  70
    32
  0
VERTEX
  8
0
  5
2507
 10
41.9954
 20
15.0765
 30
0.00000
  70
    32
  0
VERTEX
  8
0
  5
2508
 10
42.0001
 20
15.1531
 30
0.00000
  70
    32
  0
VERTEX
  8
0
  5
2509
 10
41.9963
 20
15.2298
 30
0.00000
  70
    32
  0
VERTEX
  8
0
  5
250A
 10
41.9842
 20
15.3064
 30
0.00000
  70
    32
  0
VERTEX
  8
0
  5
250B
 10
41.9636
 20
15.3827
 30
0.00000
  70
    32
  0
VERTEX
  8
0
  5
250C
 10
41.9347
 20
15.4584
 30
0.00000
  70
    32
  0
VERTEX
  8
0
  5
250D
 10
41.8975
 20
15.5335
 30
0.00000
  70
    32
  0
VERTEX
  8
0
  5
250E
 10
41.8522
 20
15.6077
 30
0.00000
  70
    32
  0
VERTEX
  8
0
  5
250F
 10
41.7987
 20
15.6809
 30
0.00000
  70
    32
  0
VERTEX
  8
0
  5
2510
 10
41.7374
 20
15.7529
 30
0.00000
  70
    32
  0
VERTEX
  8
0
  5
2511
 10
41.6682
 20
15.8234
 30
0.00000
  70
    32
  0
VERTEX
  8
0
  5
2512
 10
41.5914
 20
15.8924
 30
0.00000
  70
    32
  0
VERTEX
  8
0
  5
2513
 10
41.5071
 20
15.9597
 30
0.00000
  70
    32
  0
VERTEX
  8
0
  5
2514
 10
41.4156
 20
16.0251
 30
0.00000
  70
    32
  0
VERTEX
  8
0
  5
2515
 10
41.3171
 20
16.0884
 30
0.00000
  70
    32
  0
VERTEX
  8
0
  5
2516
 10
41.2118
 20
16.1495
 30
0.00000
  70
    32
  0
VERTEX
  8
0
  5
2517
 10
41.0999
 20
16.2083
 30
0.00000
  70
    32
  0
VERTEX
  8
0
  5
2518
 10
40.9818
 20
16.2646
 30
0.00000
  70
    32
  0
VERTEX
  8
0
  5
2519
 10
40.8577
 20
16.3183
 30
0.00000
  70
    32
  0
VERTEX
  8
0
  5
251A
 10
40.7280
 20
16.3692
 30
0.00000
  70
    32
  0
VERTEX
  8
0
  5
251B
 10
40.5928
 20
16.4172
 30
0.00000
  70
    32
  0
VERTEX
  8
0
  5
251C
 10
40.4527
 20
16.4623
 30
0.00000
  70
    32
  0
VERTEX
  8
0
  5
251D
 10
40.3078
 20
16.5042
 30
0.00000
  70
    32
  0
VERTEX
  8
0
  5
251E
 10
40.1585
 20
16.5430
 30
0.00000
  70
    32
  0
VERTEX
  8
0
  5
251F
 10
40.0053
 20
16.5784
 30
0.00000
  70
    32
  0
VERTEX
  8
0
  5
2520
 10
39.8485
 20
16.6105
 30
0.00000
  70
    32
  0
VERTEX
  8
0
  5
2521
 10
39.6884
 20
16.6391
 30
0.00000
  70
    32
  0
VERTEX
  8
0
  5
2522
 10
39.5254
 20
16.6642
 30
0.00000
  70
    32
  0
VERTEX
  8
0
  5
2523
 10
39.3599
 20
16.6857
 30
0.00000
  70
    32
  0
VERTEX
  8
0
  5
2524
 10
39.1924
 20
16.7035
 30
0.00000
  70
    32
  0
VERTEX
  8
0
  5
2525
 10
39.0233
 20
16.7177
 30
0.00000
  70
    32
  0
VERTEX
  8
0
  5
2526
 10
38.8528
 20
16.7281
 30
0.00000
  70
    32
  0
VERTEX
  8
0
  5
2527
 10
38.6815
 20
16.7348
 30
0.00000
  70
    32
  0
VERTEX
  8
0
  5
2528
 10
38.5098
 20
16.7378
 30
0.00000
  70
    32
  0
VERTEX
  8
0
  5
2529
 10
38.3381
 20
16.7370
 30
0.00000
  70
    32
  0
VERTEX
  8
0
  5
252A
 10
38.1667
 20
16.7324
 30
0.00000
  70
    32
  0
VERTEX
  8
0
  5
252B
 10
37.9961
 20
16.7241
 30
0.00000
  70
    32
  0
VERTEX
  8
0
  5
252C
 10
37.8268
 20
16.7120
 30
0.00000
  70
    32
  0
VERTEX
  8
0
  5
252D
 10
37.6591
 20
16.6963
 30
0.00000
  70
    32
  0
VERTEX
  8
0
  5
252E
 10
37.4934
 20
16.6768
 30
0.00000
  70
    32
  0
VERTEX
  8
0
  5
252F
 10
37.3301
 20
16.6538
 30
0.00000
  70
    32
  0
VERTEX
  8
0
  5
2530
 10
37.1697
 20
16.6272
 30
0.00000
  70
    32
  0
VERTEX
  8
0
  5
2531
 10
37.0124
 20
16.5971
 30
0.00000
  70
    32
  0
VERTEX
  8
0
  5
2532
 10
36.8588
 20
16.5636
 30
0.00000
  70
    32
  0
VERTEX
  8
0
  5
2533
 10
36.7091
 20
16.5267
 30
0.00000
  70
    32
  0
VERTEX
  8
0
  5
2534
 10
36.5637
 20
16.4866
 30
0.00000
  70
    32
  0
VERTEX
  8
0
  5
2535
 10
36.4229
 20
16.4433
 30
0.00000
  70
    32
  0
VERTEX
  8
0
  5
2536
 10
36.2872
 20
16.3969
 30
0.00000
  70
    32
  0
VERTEX
  8
0
  5
2537
 10
36.1568
 20
16.3476
 30
0.00000
  70
    32
  0
VERTEX
  8
0
  5
2538
 10
36.0321
 20
16.2955
 30
0.00000
  70
    32
  0
VERTEX
  8
0
  5
2539
 10
35.9133
 20
16.2407
 30
0.00000
  70
    32
  0
VERTEX
  8
0
  5
253A
 10
35.8007
 20
16.1833
 30
0.00000
  70
    32
  0
VERTEX
  8
0
  5
253B
 10
35.6946
 20
16.1235
 30
0.00000
  70
    32
  0
VERTEX
  8
0
  5
253C
 10
35.5953
 20
16.0614
 30
0.00000
  70
    32
  0
VERTEX
  8
0
  5
253D
 10
35.5030
 20
15.9972
 30
0.00000
  70
    32
  0
VERTEX
  8
0
  5
253E
 10
35.4179
 20
15.9309
 30
0.00000
  70
    32
  0
VERTEX
  8
0
  5
253F
 10
35.3403
 20
15.8629
 30
0.00000
  70
    32
  0
VERTEX
  8
0
  5
2540
 10
35.2702
 20
15.7932
 30
0.00000
  70
    32
  0
VERTEX
  8
0
  5
2541
 10
35.2079
 20
15.7220
 30
0.00000
  70
    32
  0
VERTEX
  8
0
  5
2542
 10
35.1536
 20
15.6495
 30
0.00000
  70
    32
  0
VERTEX
  8
0
  5
2543
 10
35.1073
 20
15.5759
 30
0.00000
  70
    32
  0
VERTEX
  8
0
  5
2544
 10
35.0692
 20
15.5013
 30
0.00000
  70
    32
  0
VERTEX
  8
0
  5
2545
 10
35.0394
 20
15.4259
 30
0.00000
  70
    32
  0
VERTEX
  8
0
  5
2546
 10
35.0179
 20
15.3499
 30
0.00000
  70
    32
  0
VERTEX
  8
0
  5
2547
 10
35.0048
 20
15.2735
 30
0.00000
  70
    32
  0
VERTEX
  8
0
  5
2548
 10
35.0001
 20
15.1968
 30
0.00000
  70
    32
  0
SEQEND
  8
0
  5
2549
  0
ENDBLK
  5
339
  8
0
 62
     7
  0
BLOCK
  8
0
 62
     3
  2
A$C3FE03FDA
 70
     0
 10
0.0
 20
0.0
 30
0.0
  3
A$C3FE03FDA
  1

  0
INSERT
  5
33E
  8
0
 62
     3
  2
A$C0DC71B30
 10
-0.000107692736492
 20
-0.000104754091808
 30
0.0
  0
ENDBLK
  5
33F
  8
0
 62
     3
  0
BLOCK
  8
0
  2
A$C51C070DC
 70
     0
 10
0.0
 20
0.0
 30
0.0
  3
A$C51C070DC
  1

  0
LINE
  5
344
  8
0
  6
CENTER2
 62
     4
 10
-0.0000841985129227
 20
75.1618252247790224
 30
0.0
 11
99.9999158014870915
 21
75.1618252247790224
 31
0.0
  0
CIRCLE
  5
345
  8
0
 62
     3
 10
49.9999158014870773
 20
55.1618252247790224
 30
0.0
 40
10.0
  0
CIRCLE
  5
346
  8
0
 62
     3
 10
49.9999158014870773
 20
95.1618252247790366
 30
0.0
 40
10.0
  0
LINE
  5
347
  8
0
  6
CENTER2
 62
     4
 10
49.9999158014870773
 20
150.3236902247807905
 30
0.0
 11
49.9999158014870773
 21
-0.000039775215555
 31
0.0
  0
POLYLINE
  5
348
  8
0
  6
HIDDEN2
 62
     3
 66
     1
 10
0.0
 20
0.0
 30
0.0
 70
     1
  0
VERTEX
  5
23C9
  8
0
  6
HIDDEN2
 62
     3
 10
79.9999158014870773
 20
30.1618252247790188
 30
0.0
  0
VERTEX
  5
23CA
  8
0
  6
HIDDEN2
 62
     3
 10
79.9999158014870773
 20
120.161825224778994
 30
0.0
  0
VERTEX
  5
23CB
  8
0
  6
HIDDEN2
 62
     3
 10
19.9999158014870808
 20
120.161825224778994
 30
0.0
  0
VERTEX
  5
23CC
  8
0
  6
HIDDEN2
 62
     3
 10
19.9999158014870808
 20
30.1618252247790188
 30
0.0
  0
SEQEND
  5
23CD
  8
0
  6
HIDDEN2
 62
     3
  0
ENDBLK
  5
349
  8
0
  0
BLOCK
  8
0
  2
A$C5756186B
 70
     0
 10
0.0
 20
0.0
 30
0.0
  3
A$C5756186B
  1

  0
LINE
  5
34E
  8
0
  6
CENTER2
 62
     4
 10
30.0001275829599798
 20
119.2820257094062981
 30
0.0
 11
30.0001275829599798
 21
0.0000437094058725
 31
0.0
  0
POLYLINE
  5
34F
  8
0
  6
HIDDEN2
 62
     3
 66
     1
 10
0.0
 20
0.0
 30
0.0
 70
     1
  0
VERTEX
  5
23CE
  8
0
  6
HIDDEN2
 62
     3
 10
0.0001275829599763
 20
0.0000437094058725
 30
0.0
  0
VERTEX
  5
23CF
  8
0
  6
HIDDEN2
 62
     3
 10
0.0001275829599763
 20
50.0000437094058725
 30
0.0
  0
VERTEX
  5
23D0
  8
0
  6
HIDDEN2
 62
     3
 10
60.0001275829599834
 20
50.0000437094058725
 30
0.0
  0
VERTEX
  5
23D1
  8
0
  6
HIDDEN2
 62
     3
 10
60.0001275829599834
 20
0.0000437094058725
 30
0.0
  0
SEQEND
  5
23D2
  8
0
  6
HIDDEN2
 62
     3
  0
ENDBLK
  5
350
  8
0
  0
BLOCK
  8
0
  2
A$C4E7F6CC5
 70
     0
 10
0.0
 20
0.0
 30
0.0
  3
A$C4E7F6CC5
  1

  0
LINE
  5
355
  8
0
  6
HIDDEN2
 62
     3
 10
-0.0000954992974584
 20
49.9999570132859006
 30
0.0
 11
39.9999045007025416
 21
119.2819390132863049
 31
0.0
  0
LINE
  5
356
  8
0
  6
HIDDEN2
 62
     3
 10
-0.0000954992974584
 20
119.2819390132863049
 30
0.0
 11
39.9999045007025416
 21
49.9999570132859006
 31
0.0
  0
LINE
  5
357
  8
0
  6
CENTER2
 62
     4
 10
19.9999045007025416
 20
150.3236870132896001
 30
0.0
 11
19.9999045007025416
 21
-0.0000429867141065
 31
0.0
  0
LINE
  5
358
  8
0
  6
HIDDEN2
 62
     3
 10
29.9999045007025416
 20
49.9999570132859006
 30
0.0
 11
29.9999045007025416
 21
-0.0000429867141065
 31
0.0
  0
LINE
  5
359
  8
0
  6
HIDDEN2
 62
     3
 10
9.9999045007025416
 20
49.9999570132859006
 30
0.0
 11
9.9999045007025416
 21
-0.0000429867141065
 31
0.0
  0
LINE
  5
35A
  8
0
  6
HIDDEN2
 62
     3
 10
44.9999045007025416
 20
99.6410700132910421
 30
0.0
 11
44.9999045007025416
 21
69.6410700132910279
 31
0.0
  0
LINE
  5
35B
  8
0
  6
HIDDEN2
 62
     3
 10
39.9999045007025416
 20
49.9999570132859006
 30
0.0
 11
-0.0000954992974584
 21
49.9999570132859006
 31
0.0
  0
LINE
  5
35C
  8
0
  6
HIDDEN2
 62
     3
 10
19.9999045007025416
 20
84.6410700132910137
 30
0.0
 11
44.9999045007025416
 21
84.6410700132910137
 31
0.0
  0
LINE
  5
35D
  8
0
  6
HIDDEN2
 62
     3
 10
39.9999045007025416
 20
119.2819390132863049
 30
0.0
 11
-0.0000954992974584
 21
119.2819390132863049
 31
0.0
  0
ENDBLK
  5
35E
  8
0
  0
BLOCK
  8
0
  2
A$C24BB75B8
 70
     0
 10
0.0
 20
0.0
 30
0.0
  3
A$C24BB75B8
  1

  0
LINE
  5
363
  8
0
  6
CENTER2
 62
     4
 10
49.99996041995837
 20
178.819543966208613
 30
0.0
 11
49.99996041995837
 21
-0.0000173060107045
 31
0.0
  0
POLYLINE
  5
364
  8
0
  6
HIDDEN
 62
     3
 66
     1
 10
0.0
 20
0.0
 30
0.0
 70
     1
  0
VERTEX
  5
23D3
  8
0
  6
HIDDEN
 62
     3
 10
99.99996041995837
 20
64.7411936939897714
 30
0.0
  0
VERTEX
  5
23D4
  8
0
  6
HIDDEN
 62
     3
 10
99.99996041995837
 20
139.7411936939897998
 30
0.0
  0
VERTEX
  5
23D5
  8
0
  6
HIDDEN
 62
     3
 10
-0.00003958004163
 20
139.7411936939897998
 30
0.0
  0
VERTEX
  5
23D6
  8
0
  6
HIDDEN
 62
     3
 10
-0.00003958004163
 20
64.7411936939897714
 30
0.0
  0
SEQEND
  5
23D7
  8
0
  6
HIDDEN
 62
     3
  0
ENDBLK
  5
365
  8
0
  0
BLOCK
  8
0
  2
A$C1AEA2420
 70
     0
 10
0.0
 20
0.0
 30
0.0
  3
A$C1AEA2420
  1

  0
LINE
  5
36A
  8
0
  6
PHANTOM2
 62
     3
 10
93.4517887394431455
 20
89.9999713946526754
 30
0.0
 11
93.4517887394431455
 21
499.9999713946526185
 31
0.0
  0
LINE
  5
36B
  8
0
  6
PHANTOM2
 62
     3
 10
73.4517887394431455
 20
89.9999713946526754
 30
0.0
 11
73.4517887394431455
 21
499.9999713946526185
 31
0.0
  0
LINE
  5
36C
  8
0
  6
CENTER2
 62
     4
 10
170.0970280262880863
 20
44.9998493946550298
 30
0.0
 11
0.0001287394443352
 21
44.9999713946526683
 31
0.0
  0
LINE
  5
36D
  8
0
  6
HIDDEN
 62
     3
 10
108.4517887394431028
 20
89.9999713946526754
 30
0.0
 11
108.4517887394431028
 21
-0.0000286053473246
 31
0.0
  0
LINE
  5
36E
  8
0
  6
HIDDEN
 62
     3
 10
33.4517887394431526
 20
-0.0000286053473246
 30
0.0
 11
108.4517887394431028
 21
-0.0000286053473246
 31
0.0
  0
LINE
  5
36F
  8
0
  6
HIDDEN
 62
     3
 10
33.4517887394431526
 20
89.9999713946526754
 30
0.0
 11
108.4517887394431028
 21
89.9999713946526754
 31
0.0
  0
ARC
  5
370
  8
0
  6
CONTINUOUS
 62
     1
 10
88.4517893258489494
 20
497.4604863881685901
 30
0.0
 40
5.607939600699841
 50
26.9258859113436202
 51
153.0741200885383932
  0
ARC
  5
371
  8
0
  6
CONTINUOUS
 62
     1
 10
78.4517890599418024
 20
502.5394568490301026
 30
0.0
 40
5.607939600699841
 50
206.9258859113436131
 51
333.0741200885383932
  0
ARC
  5
372
  8
0
  6
CONTINUOUS
 62
     1
 10
78.4517890599418024
 20
497.4604863881685901
 30
0.0
 40
5.607939600699841
 50
26.9258799114615606
 51
153.0741140886563016
  0
LINE
  5
373
  8
0
  6
HIDDEN
 62
     3
 10
33.4517887394431526
 20
89.9999713946526754
 30
0.0
 11
33.4517887394431526
 21
-0.0000286053473246
 31
0.0
  0
ENDBLK
  5
374
  8
0
  0
BLOCK
  8
0
 62
     7
  2
A$C014B713B
 70
     0
 10
0.0
 20
0.0
 30
0.0
  3
A$C014B713B
  1

  0
ARC
  5
378
  8
0
  6
CONTINUOUS
 62
     3
 10
329.0
 20
-10.0
 30
0.0
 40
10.0
 50
0.0
 51
90.0
  0
ARC
  5
379
  8
0
  6
CONTINUOUS
 62
     3
 10
329.0
 20
-94.0
 30
0.0
 40
10.0
 50
270.0
 51
0.0
  0
ARC
  5
37A
  8
0
  6
CONTINUOUS
 62
     3
 10
-329.0
 20
-94.0
 30
0.0
 40
10.0
 50
180.0
 51
270.0
  0
ARC
  5
37B
  8
0
  6
CONTINUOUS
 62
     3
 10
-329.0
 20
-10.0
 30
0.0
 40
10.0
 50
90.0
 51
180.0
  0
CIRCLE
  5
37C
  8
0
  6
CONTINUOUS
 62
     3
 10
-331.0
 20
-52.0
 30
0.0
 40
6.0
  0
CIRCLE
  5
37D
  8
0
  6
CONTINUOUS
 62
     3
 10
331.0
 20
-52.0
 30
0.0
 40
2.5
  0
LINE
  5
37E
  8
0
  6
CONTINUOUS
 62
     3
 10
324.0000000000036948
 20
-10.0
 30
0.0
 11
324.0000000000036948
 21
-94.0
 31
0.0
  0
LINE
  5
37F
  8
0
  6
CONTINUOUS
 62
     3
 10
-324.0
 20
-10.0
 30
0.0
 11
-324.0
 21
-94.0
 31
0.0
  0
LINE
  5
380
  8
0
  6
CONTINUOUS
 62
     3
 10
-329.0
 20
0.0
 30
0.0
 11
329.0
 21
0.0
 31
0.0
  0
LINE
  5
381
  8
0
  6
CONTINUOUS
 62
     3
 10
339.0
 20
-10.0
 30
0.0
 11
339.0
 21
-94.0
 31
0.0
  0
LINE
  5
382
  8
0
  6
CONTINUOUS
 62
     3
 10
-329.0
 20
-104.0
 30
0.0
 11
329.0
 21
-104.0
 31
0.0
  0
LINE
  5
383
  8
0
  6
CONTINUOUS
 62
     3
 10
-339.0
 20
-10.0
 30
0.0
 11
-339.0
 21
-94.0
 31
0.0
  0
ENDBLK
  5
384
  8
0
 62
     7
  0
BLOCK
  8
0
  2
A$C615207BD
 70
     0
 10
0.0
 20
0.0
 30
0.0
  3
A$C615207BD
  1

  0
ARC
  5
389
  8
0
  6
CONTINUOUS
 62
     3
 10
599.9999142697197385
 20
52.0000602628206181
 30
0.0
 40
600.0
 50
175.0281284318583914
 51
184.9718715681416086
  0
LINE
  5
38A
  8
0
  6
CONTINUOUS
 62
     3
 10
4.2574948280343961
 20
104.0000602628205968
 30
0.0
 11
4.2574948280343961
 21
0.0000602628169872
 31
0.0
  0
LINE
  5
38B
  8
0
  6
CONTINUOUS
 62
     3
 10
2.2574948280343961
 20
104.0000602628170014
 30
0.0
 11
4.2574948280343961
 21
104.0000602628205968
 31
0.0
  0
LINE
  5
38C
  8
0
  6
CONTINUOUS
 62
     3
 10
2.2574948280343961
 20
104.0000602628170014
 30
0.0
 11
2.2574948280343961
 21
0.0000602628169872
 31
0.0
  0
LINE
  5
38D
  8
0
  6
CONTINUOUS
 62
     3
 10
2.2574948280343961
 20
0.0000602628169872
 30
0.0
 11
4.2574948280343961
 21
0.0000602628169872
 31
0.0
  0
ENDBLK
  5
38E
  8
0
  0
BLOCK
  8
0
 62
     6
  2
A$C4CD329FB
 70
     0
 10
0.0
 20
0.0
 30
0.0
  3
A$C4CD329FB
  1

  0
ARC
  5
393
  8
0
  6
CONTINUOUS
 62
     3
 10
-193.1291950000012889
 20
945.7409829999996873
 30
0.0
 40
4.0
 50
293.0283430002054956
 51
357.945854999968617
  0
ARC
  5
394
  8
0
  6
CONTINUOUS
 62
     3
 10
-184.134979000002204
 20
945.4183869999977787
 30
0.0
 40
5.0
 50
124.3243519999374058
 51
177.9458549999685033
  0
LINE
  5
395
  8
0
  6
CONTINUOUS
 62
     3
 10
-180.00000900000299
 20
950.8640559999985271
 30
0.0
 11
-186.9543640000046878
 21
949.5476809999963734
 31
0.0
  0
LINE
  5
396
  8
0
  6
CONTINUOUS
 62
     3
 10
-640.0000020000006771
 20
-0.0000010244912119
 30
0.0
 11
0.0
 21
0.0
 31
0.0
  0
LINE
  5
397
  8
0
  6
CONTINUOUS
 62
     3
 10
-640.614571000005526
 20
351.9999989999996046
 30
0.0
 11
-627.7403700000068056
 21
351.9999989999996046
 31
0.0
  0
LINE
  5
398
  8
0
  6
CONTINUOUS
 62
     3
 10
-640.0000250000011874
 20
347.9999989999996046
 30
0.0
 11
-640.0000000580330379
 21
-0.0000010244912119
 31
0.0
  0
LINE
  5
399
  8
0
  6
CONTINUOUS
 62
     3
 10
-640.0000250000011874
 20
347.9999989999996046
 30
0.0
 11
-627.7000030000053812
 21
347.9999989999996046
 31
0.0
  0
LINE
  5
39A
  8
0
  6
CONTINUOUS
 62
     3
 10
-627.7000030000053812
 20
347.9999989999996046
 30
0.0
 11
-627.7000030000125435
 21
-0.0000010048024706
 31
0.0
  0
LINE
  5
39B
  8
0
  6
CONTINUOUS
 62
     3
 10
-771.1960450000042329
 20
774.4519419999995762
 30
0.0
 11
-758.3218370000031427
 21
774.4519159999980502
 31
0.0
  0
LINE
  5
39C
  8
0
  6
CONTINUOUS
 62
     3
 10
-758.3218370000031427
 20
774.4519159999980502
 30
0.0
 11
-627.7403700000068056
 21
351.9999989999996046
 31
0.0
  0
LINE
  5
39D
  8
0
  6
CONTINUOUS
 62
     3
 10
-180.0003160000051139
 20
931.7300969999995459
 30
0.0
 11
-743.1108050000037792
 21
825.1509000000005472
 31
0.0
  0
LINE
  5
39E
  8
0
  6
CONTINUOUS
 62
     3
 10
-743.1108040000035544
 20
825.1508990000000949
 30
0.0
 11
-752.5454370000005611
 21
778.4517889999988256
 31
0.0
  0
LINE
  5
39F
  8
0
  6
CONTINUOUS
 62
     3
 10
-189.1414127808166086
 20
929.9999733854856458
 30
0.0
 11
0.0
 21
929.999994999998421
 31
0.0
  0
LINE
  5
3A0
  8
0
  6
CONTINUOUS
 62
     3
 10
0.0
 20
0.0
 30
0.0
 11
0.0
 21
930.9999949999983073
 31
0.0
  0
ARC
  5
3A1
  8
0
  6
CONTINUOUS
 62
     3
 10
-720.8758040000028586
 20
839.9451379999991332
 30
0.0
 40
4.0
 50
39.0577559999466217
 51
76.6445919998810439
  0
LINE
  5
3A2
  8
0
  6
CONTINUOUS
 62
     3
 10
-827.6900929553739843
 20
869.72955864677715
 30
0.0
 11
-719.9518410000018775
 21
843.8369839999976421
 31
0.0
  0
LINE
  5
3A3
  8
0
  6
CONTINUOUS
 62
     3
 10
-837.0000014720935724
 20
778.4519634416318468
 30
0.0
 11
-752.5454780000000028
 21
778.4519220000000814
 31
0.0
  0
LINE
  5
3A4
  8
0
  6
CONTINUOUS
 62
     3
 10
-771.1960450000042329
 20
774.4519419999995762
 30
0.0
 11
-640.614571000005526
 21
351.9999989999996046
 31
0.0
  0
LINE
  5
3A5
  8
0
  6
CONTINUOUS
 62
     3
 10
-0.0003280000019004
 20
930.9999949999983073
 30
0.0
 11
-0.0003160000051139
 21
2029.9999049999969429
 31
0.0
  0
LINE
  5
3A6
  8
0
  6
CONTINUOUS
 62
     3
 10
-180.0003240000004894
 20
2029.9999069999980748
 30
0.0
 11
-0.0003160000051139
 21
2029.9999049999969429
 31
0.0
  0
LINE
  5
3A7
  8
0
  6
CONTINUOUS
 62
     3
 10
-180.0003240000004894
 20
2029.9999069999980748
 30
0.0
 11
-180.0003040000009946
 21
929.9999739999983603
 31
0.0
  0
LINE
  5
3A8
  8
0
  6
CONTINUOUS
 62
     3
 10
-180.0003160000051139
 20
944.2484679999979562
 30
0.0
 11
-717.769759000002523
 21
842.4655379999967408
 31
0.0
  0
LINE
  5
3A9
  8
0
  6
CONTINUOUS
 62
     3
 10
-840.000000000007276
 20
781.4519634416283225
 30
0.0
 11
-840.0
 21
859.9999990758004742
 31
0.0
  0
ARC
  5
3AA
  8
0
  6
CONTINUOUS
 62
     3
 10
-837.0000000000071623
 20
781.4519634416283225
 30
0.0
 40
3.0
 50
180.0
 51
269.9999718850838235
  0
ARC
  5
3AB
  8
0
  6
CONTINUOUS
 62
     3
 10
-830.0
 20
859.9999990758004742
 30
0.0
 40
10.0
 50
76.6445943329243136
 51
180.0
  0
ARC
  5
3AC
  8
0
  6
HIDDEN
 62
     4
 10
-211.0842794331038021
 20
899.815452951239422
 30
0.0
 40
10.0
 50
100.7199999997717015
 51
175.7199999998175883
  0
LINE
  5
3AD
  8
0
  6
HIDDEN
 62
     4
 10
-360.4254564331059214
 20
454.7195486544515006
 30
0.0
 11
-352.0549784331087722
 21
456.5033196544536054
 31
0.0
  0
ARC
  5
3AE
  8
0
  6
HIDDEN
 62
     4
 10
-360.0086114331061253
 20
452.763470654455773
 30
0.0
 40
2.0
 50
102.0299319999387961
 51
180.7199999998518081
  0
ARC
  5
3AF
  8
0
  6
HIDDEN
 62
     4
 10
-479.9991364331071964
 20
451.2555456544504864
 30
0.0
 40
2.0
 50
0.7200000000602885
 51
79.4100680001110391
  0
ARC
  5
3B0
  8
0
  6
HIDDEN
 62
     4
 10
-465.9077514331074212
 20
444.0716596544517074
 30
0.0
 40
2.0
 50
0.7200000000602885
 51
90.7200000000602955
  0
ARC
  5
3B1
  8
0
  6
HIDDEN
 62
     4
 10
-373.9150154331073281
 20
445.2277346544506145
 30
0.0
 40
2.0
 50
90.7200000000602955
 51
180.7199999998518081
  0
ARC
  5
3B2
  8
0
  6
HIDDEN
 62
     4
 10
-474.9698704331094063
 20
448.958169654455503
 30
0.0
 40
3.0
 50
180.7199999998518081
 51
270.7200000000602813
  0
LINE
  5
3B3
  8
0
  6
HIDDEN
 62
     4
 10
-474.9321724331093151
 20
445.9584066544557004
 30
0.0
 11
-364.9408574331101249
 21
447.340671654455889
 31
0.0
  0
ARC
  5
3B4
  8
0
  6
HIDDEN
 62
     4
 10
-364.9785554331101025
 20
450.3404346544556915
 30
0.0
 40
3.0
 50
270.7200000000602813
 51
0.7200000000602885
  0
LINE
  5
3B5
  8
0
  6
HIDDEN
 62
     4
 10
-361.9787924331030808
 20
450.3781326544557828
 30
0.0
 11
-362.0084534331107875
 21
452.7383386544534005
 31
0.0
  0
LINE
  5
3B6
  8
0
  6
HIDDEN
 62
     4
 10
-479.6315794331093798
 20
453.2214806544507155
 30
0.0
 11
-488.0442404331114972
 21
454.7943376544499188
 31
0.0
  0
LINE
  5
3B7
  8
0
  6
HIDDEN
 62
     4
 10
-477.9992944331096965
 20
451.2806776544529725
 30
0.0
 11
-477.9696334331092089
 21
448.9204716544555254
 31
0.0
  0
LINE
  5
3B8
  8
0
  6
HIDDEN
 62
     4
 10
-478.0198974331069053
 20
452.9201556544502978
 30
0.0
 11
-478.0076504331080969
 21
451.945620654456377
 31
0.0
  0
LINE
  5
3B9
  8
0
  6
HIDDEN
 62
     4
 10
-478.0198974331069053
 20
452.9201556544502978
 30
0.0
 11
-478.9298754331102259
 21
453.0902886544499779
 31
0.0
  0
LINE
  5
3BA
  8
0
  6
HIDDEN
 62
     4
 10
-463.7191534331067828
 20
429.0769096544535159
 30
0.0
 11
-463.9079084331096965
 21
444.0967916544540799
 31
0.0
  0
LINE
  5
3BB
  8
0
  6
HIDDEN
 62
     4
 10
-375.7261014331087949
 20
430.1827216544551789
 30
0.0
 11
-375.914857433104828
 21
445.2026026544554043
 31
0.0
  0
LINE
  5
3BC
  8
0
  6
HIDDEN
 62
     4
 10
-250.2095714331080956
 20
521.5382596544513945
 30
0.0
 11
-221.0563914330996056
 21
900.5617599512405604
 31
0.0
  0
ARC
  5
3BD
  8
0
  6
HIDDEN
 62
     4
 10
-330.9836824331068783
 20
527.5833406544552417
 30
0.0
 40
81.0
 50
272.7200000001868148
 51
355.7199999998176168
  0
LINE
  5
3BE
  8
0
  6
HIDDEN
 62
     4
 10
-349.2670354331057752
 20
445.6233636544566252
 30
0.0
 11
-327.1398174331116024
 21
446.6745976544552832
 31
0.0
  0
ARC
  5
3BF
  8
0
  6
HIDDEN
 62
     4
 10
-330.9836824331068783
 20
527.5833406544552417
 30
0.0
 40
70.0
 50
272.7200000001868148
 51
355.7199999998176168
  0
LINE
  5
3C0
  8
0
  6
HIDDEN
 62
     4
 10
-358.7274444331123959
 20
430.3963436544509022
 30
0.0
 11
-358.791694433108205
 21
435.5089696544528124
 31
0.0
  0
ARC
  5
3C1
  8
0
  6
HIDDEN
 62
     4
 10
-348.7924844331064946
 20
435.6346296544506913
 30
0.0
 40
10.0
 50
92.7200000001867579
 51
180.7199999998518081
  0
ARC
  5
3C2
  8
0
  6
HIDDEN
 62
     4
 10
-490.7812724331088248
 20
433.8502526544543798
 30
0.0
 40
10.0
 50
0.7200000000602885
 51
88.7200000002212334
  0
LINE
  5
3C3
  8
0
  6
HIDDEN
 62
     4
 10
-490.557888433104381
 20
443.847756654453292
 30
0.0
 11
-527.6675114331083023
 21
444.6769316544522894
 31
0.0
  0
LINE
  5
3C4
  8
0
  6
HIDDEN
 62
     4
 10
-358.7274444331123959
 20
430.3963436544509022
 30
0.0
 11
-480.7178114331035772
 21
428.8632866544502917
 31
0.0
  0
LINE
  5
3C5
  8
0
  6
HIDDEN
 62
     4
 10
-480.7178114331035772
 20
428.8632866544502917
 30
0.0
 11
-480.7820614331067191
 21
433.9759126544522019
 31
0.0
  0
ARC
  5
3C6
  8
0
  6
HIDDEN
 62
     4
 10
-525.8581084331090096
 20
525.6567196544565377
 30
0.0
 40
70.0
 50
200.7199999998518081
 51
268.7200000002213187
  0
ARC
  5
3C7
  8
0
  6
HIDDEN
 62
     4
 10
-525.8581084331090096
 20
525.6567196544565377
 30
0.0
 40
81.0
 50
200.7199999998518081
 51
268.7200030000141737
  0
LINE
  5
3C8
  8
0
  6
HIDDEN
 62
     4
 10
-719.521725058213633
 20
829.2609387060219888
 30
0.0
 11
-591.0702780000136727
 21
500.2025627616822021
 31
0.0
  0
LINE
  5
3C9
  8
0
  6
HIDDEN
 62
     4
 10
-488.0442404331114972
 20
454.7943376544499188
 30
0.0
 11
-527.4217934331098832
 21
455.6741876544547267
 31
0.0
  0
LINE
  5
3CA
  8
0
  6
HIDDEN
 62
     4
 10
-352.0549784331087722
 20
456.5033196544536054
 30
0.0
 11
-327.6618234331107828
 21
457.6622046544507043
 31
0.0
  0
ARC
  5
3CB
  8
0
  6
HIDDEN
 62
     4
 10
-730.1623164331031148
 20
798.0354069512395654
 30
0.0
 40
10.0
 50
20.7199999998517903
 51
90.7200000000602955
  0
LINE
  5
3CC
  8
0
  6
HIDDEN
 62
     4
 10
-730.2879774331013323
 20
808.0346179512415574
 30
0.0
 11
-746.6102515856617856
 21
807.8294952165450695
 31
0.0
  0
LINE
  5
3CD
  8
0
  6
HIDDEN
 62
     4
 10
-601.6190764331113314
 20
496.9988106544550988
 30
0.0
 11
-720.809111433096291
 21
801.5734209512411326
 31
0.0
  0
LINE
  5
3CE
  8
0
  6
HIDDEN
 62
     4
 10
-183.5092734331047097
 20
915.2133949512425488
 30
0.0
 11
-186.2994174331032866
 21
929.9516139512415975
 31
0.0
  0
LINE
  5
3CF
  8
0
  6
HIDDEN
 62
     4
 10
-212.9443754331005039
 20
909.6409319512384855
 30
0.0
 11
-183.5092734331047097
 21
915.2133949512425488
 31
0.0
  0
LINE
  5
3D0
  8
0
  6
HIDDEN
 62
     4
 10
-230.4386974330990938
 20
922.5882989512391532
 30
0.0
 11
-261.178895433105879
 21
522.3591966544554452
 31
0.0
  0
ARC
  5
3D1
  8
0
  6
HIDDEN
 62
     4
 10
-215.4419871809732001
 20
922.274162652982227
 30
0.0
 40
15.0
 50
100.717522000359196
 51
178.7999999999765919
  0
LINE
  5
3D2
  8
0
  6
CENTER2
 62
     4
 10
-419.730813933099796
 20
913.3219027999292621
 30
0.0
 11
-419.730813933107072
 21
256.3379599932376891
 31
0.0
  0
LINE
  5
3D3
  8
0
  6
HIDDEN
 62
     4
 10
-477.6970147198226186
 20
428.9012491072352873
 30
0.0
 11
-451.338479933110591
 21
297.1087001544510144
 31
0.0
  0
LINE
  5
3D4
  8
0
  6
HIDDEN
 62
     4
 10
-362.0023623794986065
 20
430.3551876516867196
 30
0.0
 11
-388.1460979331095018
 21
297.144100154451678
 31
0.0
  0
LINE
  5
3D5
  8
0
  6
HIDDEN
 62
     4
 10
-441.5328159331111237
 20
289.0698811544497744
 30
0.0
 11
-397.9590859331074171
 21
289.0698811544497744
 31
0.0
  0
LINE
  5
3D6
  8
0
  6
HIDDEN
 62
     4
 10
-444.730813933107072
 20
279.0698811544497744
 30
0.0
 11
-394.730813933107072
 21
279.0698811544497744
 31
0.0
  0
LINE
  5
3D7
  8
0
  6
HIDDEN
 62
     4
 10
-444.730813933107072
 20
289.0698811544497744
 30
0.0
 11
-444.730813933107072
 21
279.0698811544497744
 31
0.0
  0
ARC
  5
3D8
  8
0
  6
HIDDEN
 62
     4
 10
-441.5328159331111237
 20
299.0698811544497744
 30
0.0
 40
10.0
 50
191.3099379997863139
 51
270.0000009996822996
  0
LINE
  5
3D9
  8
0
  6
HIDDEN
 62
     4
 10
-394.730813933107072
 20
289.0698811544497744
 30
0.0
 11
-394.730813933107072
 21
279.0698811544497744
 31
0.0
  0
ARC
  5
3DA
  8
0
  6
HIDDEN
 62
     4
 10
-397.9590859331074171
 20
299.0698811544497744
 30
0.0
 40
10.0
 50
270.0000009996822996
 51
348.8963630001310889
  0
ENDBLK
  5
3DB
  8
0
 62
     6
  0
BLOCK
  8
0
 62
     7
  2
A$C09EA1326
 70
     0
 10
0.0
 20
0.0
 30
0.0
  3
A$C09EA1326
  1

  0
POLYLINE
  5
3E0
  8
0
  6
CONTINUOUS
 62
     3
 10
-17.9999999999990905
 20
-250.0263340389745679
 30
0.0
 66
     1
 70
     8
  0
VERTEX
  8
0
  5
254A
 10
-18.0000
 20
-250.026
 30
0.00000
  70
    32
  0
VERTEX
  8
0
  5
254B
 10
-17.9961
 20
-250.137
 30
0.00000
  70
    32
  0
VERTEX
  8
0
  5
254C
 10
-17.9843
 20
-250.248
 30
0.00000
  70
    32
  0
VERTEX
  8
0
  5
254D
 10
-17.9648
 20
-250.359
 30
0.00000
  70
    32
  0
VERTEX
  8
0
  5
254E
 10
-17.9374
 20
-250.470
 30
0.00000
  70
    32
  0
VERTEX
  8
0
  5
254F
 10
-17.9022
 20
-250.580
 30
0.00000
  70
    32
  0
VERTEX
  8
0
  5
2550
 10
-17.8593
 20
-250.690
 30
0.00000
  70
    32
  0
VERTEX
  8
0
  5
2551
 10
-17.8086
 20
-250.799
 30
0.00000
  70
    32
  0
VERTEX
  8
0
  5
2552
 10
-17.7502
 20
-250.908
 30
0.00000
  70
    32
  0
VERTEX
  8
0
  5
2553
 10
-17.6841
 20
-251.017
 30
0.00000
  70
    32
  0
VERTEX
  8
0
  5
2554
 10
-17.6104
 20
-251.125
 30
0.00000
  70
    32
  0
VERTEX
  8
0
  5
2555
 10
-17.5291
 20
-251.232
 30
0.00000
  70
    32
  0
VERTEX
  8
0
  5
2556
 10
-17.4402
 20
-251.339
 30
0.00000
  70
    32
  0
VERTEX
  8
0
  5
2557
 10
-17.3439
 20
-251.445
 30
0.00000
  70
    32
  0
VERTEX
  8
0
  5
2558
 10
-17.2401
 20
-251.550
 30
0.00000
  70
    32
  0
VERTEX
  8
0
  5
2559
 10
-17.1289
 20
-251.654
 30
0.00000
  70
    32
  0
VERTEX
  8
0
  5
255A
 10
-17.0104
 20
-251.757
 30
0.00000
  70
    32
  0
VERTEX
  8
0
  5
255B
 10
-16.8847
 20
-251.859
 30
0.00000
  70
    32
  0
VERTEX
  8
0
  5
255C
 10
-16.7519
 20
-251.959
 30
0.00000
  70
    32
  0
VERTEX
  8
0
  5
255D
 10
-16.6119
 20
-252.059
 30
0.00000
  70
    32
  0
VERTEX
  8
0
  5
255E
 10
-16.4650
 20
-252.158
 30
0.00000
  70
    32
  0
VERTEX
  8
0
  5
255F
 10
-16.3111
 20
-252.255
 30
0.00000
  70
    32
  0
VERTEX
  8
0
  5
2560
 10
-16.1505
 20
-252.351
 30
0.00000
  70
    32
  0
VERTEX
  8
0
  5
2561
 10
-15.9831
 20
-252.445
 30
0.00000
  70
    32
  0
VERTEX
  8
0
  5
2562
 10
-15.8091
 20
-252.538
 30
0.00000
  70
    32
  0
VERTEX
  8
0
  5
2563
 10
-15.6286
 20
-252.630
 30
0.00000
  70
    32
  0
VERTEX
  8
0
  5
2564
 10
-15.4417
 20
-252.720
 30
0.00000
  70
    32
  0
VERTEX
  8
0
  5
2565
 10
-15.2485
 20
-252.808
 30
0.00000
  70
    32
  0
VERTEX
  8
0
  5
2566
 10
-15.0491
 20
-252.895
 30
0.00000
  70
    32
  0
VERTEX
  8
0
  5
2567
 10
-14.8437
 20
-252.980
 30
0.00000
  70
    32
  0
VERTEX
  8
0
  5
2568
 10
-14.6324
 20
-253.063
 30
0.00000
  70
    32
  0
VERTEX
  8
0
  5
2569
 10
-14.4152
 20
-253.144
 30
0.00000
  70
    32
  0
VERTEX
  8
0
  5
256A
 10
-14.1924
 20
-253.223
 30
0.00000
  70
    32
  0
VERTEX
  8
0
  5
256B
 10
-13.9640
 20
-253.301
 30
0.00000
  70
    32
  0
VERTEX
  8
0
  5
256C
 10
-13.7303
 20
-253.376
 30
0.00000
  70
    32
  0
VERTEX
  8
0
  5
256D
 10
-13.4912
 20
-253.450
 30
0.00000
  70
    32
  0
VERTEX
  8
0
  5
256E
 10
-13.2471
 20
-253.521
 30
0.00000
  70
    32
  0
VERTEX
  8
0
  5
256F
 10
-12.9980
 20
-253.591
 30
0.00000
  70
    32
  0
VERTEX
  8
0
  5
2570
 10
-12.7441
 20
-253.658
 30
0.00000
  70
    32
  0
VERTEX
  8
0
  5
2571
 10
-12.4855
 20
-253.723
 30
0.00000
  70
    32
  0
VERTEX
  8
0
  5
2572
 10
-12.2224
 20
-253.786
 30
0.00000
  70
    32
  0
VERTEX
  8
0
  5
2573
 10
-11.9550
 20
-253.846
 30
0.00000
  70
    32
  0
VERTEX
  8
0
  5
2574
 10
-11.6833
 20
-253.904
 30
0.00000
  70
    32
  0
VERTEX
  8
0
  5
2575
 10
-11.4077
 20
-253.960
 30
0.00000
  70
    32
  0
VERTEX
  8
0
  5
2576
 10
-11.1282
 20
-254.014
 30
0.00000
  70
    32
  0
VERTEX
  8
0
  5
2577
 10
-10.8449
 20
-254.065
 30
0.00000
  70
    32
  0
VERTEX
  8
0
  5
2578
 10
-10.5582
 20
-254.114
 30
0.00000
  70
    32
  0
VERTEX
  8
0
  5
2579
 10
-10.2681
 20
-254.160
 30
0.00000
  70
    32
  0
VERTEX
  8
0
  5
257A
 10
-9.97488
 20
-254.204
 30
0.00000
  70
    32
  0
VERTEX
  8
0
  5
257B
 10
-9.67864
 20
-254.245
 30
0.00000
  70
    32
  0
VERTEX
  8
0
  5
257C
 10
-9.37957
 20
-254.283
 30
0.00000
  70
    32
  0
VERTEX
  8
0
  5
257D
 10
-9.07786
 20
-254.319
 30
0.00000
  70
    32
  0
VERTEX
  8
0
  5
257E
 10
-8.77370
 20
-254.353
 30
0.00000
  70
    32
  0
VERTEX
  8
0
  5
257F
 10
-8.46727
 20
-254.384
 30
0.00000
  70
    32
  0
VERTEX
  8
0
  5
2580
 10
-8.15874
 20
-254.412
 30
0.00000
  70
    32
  0
VERTEX
  8
0
  5
2581
 10
-7.84832
 20
-254.438
 30
0.00000
  70
    32
  0
VERTEX
  8
0
  5
2582
 10
-7.53617
 20
-254.461
 30
0.00000
  70
    32
  0
VERTEX
  8
0
  5
2583
 10
-7.22250
 20
-254.481
 30
0.00000
  70
    32
  0
VERTEX
  8
0
  5
2584
 10
-6.90750
 20
-254.499
 30
0.00000
  70
    32
  0
VERTEX
  8
0
  5
2585
 10
-6.59134
 20
-254.514
 30
0.00000
  70
    32
  0
VERTEX
  8
0
  5
2586
 10
-6.27422
 20
-254.526
 30
0.00000
  70
    32
  0
VERTEX
  8
0
  5
2587
 10
-5.95634
 20
-254.535
 30
0.00000
  70
    32
  0
VERTEX
  8
0
  5
2588
 10
-5.63788
 20
-254.542
 30
0.00000
  70
    32
  0
VERTEX
  8
0
  5
2589
 10
-5.31904
 20
-254.546
 30
0.00000
  70
    32
  0
VERTEX
  8
0
  5
258A
 10
-5.00000
 20
-254.548
 30
0.00000
  70
    32
  0
VERTEX
  8
0
  5
258B
 10
-4.68096
 20
-254.546
 30
0.00000
  70
    32
  0
VERTEX
  8
0
  5
258C
 10
-4.36212
 20
-254.542
 30
0.00000
  70
    32
  0
VERTEX
  8
0
  5
258D
 10
-4.04366
 20
-254.535
 30
0.00000
  70
    32
  0
VERTEX
  8
0
  5
258E
 10
-3.72578
 20
-254.526
 30
0.00000
  70
    32
  0
VERTEX
  8
0
  5
258F
 10
-3.40866
 20
-254.514
 30
0.00000
  70
    32
  0
VERTEX
  8
0
  5
2590
 10
-3.09250
 20
-254.499
 30
0.00000
  70
    32
  0
VERTEX
  8
0
  5
2591
 10
-2.77750
 20
-254.481
 30
0.00000
  70
    32
  0
VERTEX
  8
0
  5
2592
 10
-2.46383
 20
-254.461
 30
0.00000
  70
    32
  0
VERTEX
  8
0
  5
2593
 10
-2.15168
 20
-254.438
 30
0.00000
  70
    32
  0
VERTEX
  8
0
  5
2594
 10
-1.84126
 20
-254.412
 30
0.00000
  70
    32
  0
VERTEX
  8
0
  5
2595
 10
-1.53273
 20
-254.384
 30
0.00000
  70
    32
  0
VERTEX
  8
0
  5
2596
 10
-1.22630
 20
-254.353
 30
0.00000
  70
    32
  0
VERTEX
  8
0
  5
2597
 10
-0.922137
 20
-254.319
 30
0.00000
  70
    32
  0
VERTEX
  8
0
  5
2598
 10
-0.620432
 20
-254.283
 30
0.00000
  70
    32
  0
VERTEX
  8
0
  5
2599
 10
-0.321365
 20
-254.245
 30
0.00000
  70
    32
  0
VERTEX
  8
0
  5
259A
 10
-0.0251154
 20
-254.204
 30
0.00000
  70
    32
  0
VERTEX
  8
0
  5
259B
 10
0.268137
 20
-254.160
 30
0.00000
  70
    32
  0
VERTEX
  8
0
  5
259C
 10
0.558216
 20
-254.114
 30
0.00000
  70
    32
  0
VERTEX
  8
0
  5
259D
 10
0.844947
 20
-254.065
 30
0.00000
  70
    32
  0
VERTEX
  8
0
  5
259E
 10
1.12816
 20
-254.014
 30
0.00000
  70
    32
  0
VERTEX
  8
0
  5
259F
 10
1.40768
 20
-253.960
 30
0.00000
  70
    32
  0
VERTEX
  8
0
  5
25A0
 10
1.68334
 20
-253.904
 30
0.00000
  70
    32
  0
VERTEX
  8
0
  5
25A1
 10
1.95497
 20
-253.846
 30
0.00000
  70
    32
  0
VERTEX
  8
0
  5
25A2
 10
2.22241
 20
-253.786
 30
0.00000
  70
    32
  0
VERTEX
  8
0
  5
25A3
 10
2.48551
 20
-253.723
 30
0.00000
  70
    32
  0
VERTEX
  8
0
  5
25A4
 10
2.74409
 20
-253.658
 30
0.00000
  70
    32
  0
VERTEX
  8
0
  5
25A5
 10
2.99801
 20
-253.591
 30
0.00000
  70
    32
  0
VERTEX
  8
0
  5
25A6
 10
3.24711
 20
-253.521
 30
0.00000
  70
    32
  0
VERTEX
  8
0
  5
25A7
 10
3.49125
 20
-253.450
 30
0.00000
  70
    32
  0
VERTEX
  8
0
  5
25A8
 10
3.73027
 20
-253.376
 30
0.00000
  70
    32
  0
VERTEX
  8
0
  5
25A9
 10
3.96403
 20
-253.301
 30
0.00000
  70
    32
  0
VERTEX
  8
0
  5
25AA
 10
4.19239
 20
-253.223
 30
0.00000
  70
    32
  0
VERTEX
  8
0
  5
25AB
 10
4.41521
 20
-253.144
 30
0.00000
  70
    32
  0
VERTEX
  8
0
  5
25AC
 10
4.63236
 20
-253.063
 30
0.00000
  70
    32
  0
VERTEX
  8
0
  5
25AD
 10
4.84372
 20
-252.980
 30
0.00000
  70
    32
  0
VERTEX
  8
0
  5
25AE
 10
5.04914
 20
-252.895
 30
0.00000
  70
    32
  0
VERTEX
  8
0
  5
25AF
 10
5.24850
 20
-252.808
 30
0.00000
  70
    32
  0
VERTEX
  8
0
  5
25B0
 10
5.44170
 20
-252.720
 30
0.00000
  70
    32
  0
VERTEX
  8
0
  5
25B1
 10
5.62860
 20
-252.630
 30
0.00000
  70
    32
  0
VERTEX
  8
0
  5
25B2
 10
5.80910
 20
-252.538
 30
0.00000
  70
    32
  0
VERTEX
  8
0
  5
25B3
 10
5.98310
 20
-252.445
 30
0.00000
  70
    32
  0
VERTEX
  8
0
  5
25B4
 10
6.15047
 20
-252.351
 30
0.00000
  70
    32
  0
VERTEX
  8
0
  5
25B5
 10
6.31113
 20
-252.255
 30
0.00000
  70
    32
  0
VERTEX
  8
0
  5
25B6
 10
6.46498
 20
-252.158
 30
0.00000
  70
    32
  0
VERTEX
  8
0
  5
25B7
 10
6.61192
 20
-252.059
 30
0.00000
  70
    32
  0
VERTEX
  8
0
  5
25B8
 10
6.75186
 20
-251.959
 30
0.00000
  70
    32
  0
VERTEX
  8
0
  5
25B9
 10
6.88473
 20
-251.859
 30
0.00000
  70
    32
  0
VERTEX
  8
0
  5
25BA
 10
7.01043
 20
-251.757
 30
0.00000
  70
    32
  0
VERTEX
  8
0
  5
25BB
 10
7.12891
 20
-251.654
 30
0.00000
  70
    32
  0
VERTEX
  8
0
  5
25BC
 10
7.24007
 20
-251.550
 30
0.00000
  70
    32
  0
VERTEX
  8
0
  5
25BD
 10
7.34387
 20
-251.445
 30
0.00000
  70
    32
  0
VERTEX
  8
0
  5
25BE
 10
7.44022
 20
-251.339
 30
0.00000
  70
    32
  0
VERTEX
  8
0
  5
25BF
 10
7.52909
 20
-251.232
 30
0.00000
  70
    32
  0
VERTEX
  8
0
  5
25C0
 10
7.61041
 20
-251.125
 30
0.00000
  70
    32
  0
VERTEX
  8
0
  5
25C1
 10
7.68413
 20
-251.017
 30
0.00000
  70
    32
  0
VERTEX
  8
0
  5
25C2
 10
7.75021
 20
-250.908
 30
0.00000
  70
    32
  0
VERTEX
  8
0
  5
25C3
 10
7.80861
 20
-250.799
 30
0.00000
  70
    32
  0
VERTEX
  8
0
  5
25C4
 10
7.85929
 20
-250.690
 30
0.00000
  70
    32
  0
VERTEX
  8
0
  5
25C5
 10
7.90223
 20
-250.580
 30
0.00000
  70
    32
  0
VERTEX
  8
0
  5
25C6
 10
7.93740
 20
-250.470
 30
0.00000
  70
    32
  0
VERTEX
  8
0
  5
25C7
 10
7.96478
 20
-250.359
 30
0.00000
  70
    32
  0
VERTEX
  8
0
  5
25C8
 10
7.98434
 20
-250.248
 30
0.00000
  70
    32
  0
VERTEX
  8
0
  5
25C9
 10
7.99608
 20
-250.137
 30
0.00000
  70
    32
  0
VERTEX
  8
0
  5
25CA
 10
8.00000
 20
-250.026
 30
0.00000
  70
    32
  0
SEQEND
  8
0
  5
25CB
  0
ARC
  5
3E1
  8
0
  6
CONTINUOUS
 62
     3
 10
-5.0000000000072751
 20
-266.0000000000036948
 30
0.0
 40
17.3249999999999993
 50
138.6216368676359991
 51
149.972087730193806
  0
ARC
  5
3E2
  8
0
  6
CONTINUOUS
 62
     3
 10
-5.0000000000072751
 20
-266.0000000000036948
 30
0.0
 40
17.3249999999999993
 50
30.0286445974502811
 51
41.3783631323639725
  0
ARC
  5
3E3
  8
0
  6
CONTINUOUS
 62
     3
 10
-5.0000000000072751
 20
-266.0000000000036948
 30
0.0
 40
23.0
 50
130.7057068313588957
 51
359.9999999997914983
  0
ARC
  5
3E4
  8
0
  6
CONTINUOUS
 62
     3
 10
-5.0000000000072751
 20
-266.0000000000036948
 30
0.0
 40
23.0
 50
0.0
 51
49.2942931686410901
  0
ARC
  5
3E5
  8
0
  6
CONTINUOUS
 62
     3
 10
-0.000000000007276
 20
-92.8531382243745753
 30
0.0
 40
2.4999999998267408
 50
202.7990312726107902
 51
337.2009687273891814
  0
ARC
  5
3E6
  8
0
  6
CONTINUOUS
 62
     3
 10
-0.0000000000363798
 20
-8.8531382272012706
 30
0.0
 40
84.999999997214573
 50
261.2025892895454717
 51
278.7974107104545283
  0
ARC
  5
3E7
  8
0
  6
CONTINUOUS
 62
     3
 10
0.0000000001964509
 20
-8.7499999993597157
 30
0.0
 40
77.2500000006403127
 50
254.8031619554217002
 51
285.1968380445783282
  0
ARC
  5
3E8
  8
0
  6
CONTINUOUS
 62
     3
 10
-29.1417533219428186
 20
-73.7678491902006499
 30
0.0
 40
5.0
 50
182.6025622023867925
 51
245.8575246252287059
  0
ARC
  5
3E9
  8
0
  6
CONTINUOUS
 62
     3
 10
0.0000000001964509
 20
-8.7499999993597157
 30
0.0
 40
76.2500000006403127
 50
245.8575246252287059
 51
294.1424753743601741
  0
ARC
  5
3EA
  8
0
  6
CONTINUOUS
 62
     3
 10
29.1417533219137113
 20
-73.767849190357083
 30
0.0
 40
5.0
 50
294.1424753743601741
 51
357.3974377976131791
  0
ARC
  5
3EB
  8
0
  6
CONTINUOUS
 62
     3
 10
-29.1417533219428186
 20
-68.76784919018246
 30
0.0
 40
5.0
 50
182.6025622023867925
 51
245.8575246252287059
  0
ARC
  5
3EC
  8
0
  6
CONTINUOUS
 62
     3
 10
0.0000000001964509
 20
-3.7499999993415249
 30
0.0
 40
76.2500000006403127
 50
245.8575246252287059
 51
294.1424753743601741
  0
ARC
  5
3ED
  8
0
  6
CONTINUOUS
 62
     3
 10
29.1417533219137113
 20
-68.7678491903388931
 30
0.0
 40
5.0
 50
294.1424753743601741
 51
357.3974377976131791
  0
CIRCLE
  5
3EE
  8
0
  6
CONTINUOUS
 62
     3
 10
0.000000000007276
 20
-8.5000000000109122
 30
0.0
 40
2.4999999999986349
  0
LINE
  5
3EF
  8
0
  6
CONTINUOUS
 62
     3
 10
-20.0000000000072795
 20
-233.0000000000109139
 30
0.0
 11
-17.9999999999927205
 21
-232.9999999999926956
 31
0.0
  0
LINE
  5
3F0
  8
0
  6
CONTINUOUS
 62
     3
 10
9.9999999999781721
 20
-233.0000000000073044
 30
0.0
 11
7.9999999999781721
 21
-233.000000000025409
 31
0.0
  0
LINE
  5
3F1
  8
0
  6
CONTINUOUS
 62
     3
 10
9.999999999992724
 20
-257.3300000000198793
 30
0.0
 11
9.9999999999781721
 21
-233.0000000000073044
 31
0.0
  0
LINE
  5
3F2
  8
0
  6
CONTINUOUS
 62
     3
 10
-20.0000000000072795
 20
-257.3300000000198793
 30
0.0
 11
-20.0000000000072795
 21
-233.0000000000109139
 31
0.0
  0
LINE
  5
3F3
  8
0
  6
CONTINUOUS
 62
     3
 10
7.999999999992724
 20
-254.5476803664095939
 30
0.0
 11
7.999999999992724
 21
-93.4758302165755453
 31
0.0
  0
LINE
  5
3F4
  8
0
  6
CONTINUOUS
 62
     3
 10
-18.0000000000072689
 20
-254.547680366267798
 30
0.0
 11
-18.0000000000072689
 21
-83.8736480743064163
 31
0.0
  0
LINE
  5
3F5
  8
0
  6
CONTINUOUS
 62
     3
 10
-18.0
 20
-250.026334038986505
 30
0.0
 11
7.999999999992724
 21
-250.0263340389828954
 31
0.0
  0
LINE
  5
3F6
  8
0
  6
CONTINUOUS
 62
     3
 10
-36.9999999998908606
 20
-6.0000000000072751
 30
0.0
 11
-38.4999999998181011
 21
-6.0
 31
0.0
  0
LINE
  5
3F7
  8
0
  6
CONTINUOUS
 62
     3
 10
-36.7727272727424932
 20
-11.00000000003274
 30
0.0
 11
-38.5000000000218279
 21
-11.0000000001200497
 31
0.0
  0
LINE
  5
3F8
  8
0
  6
CONTINUOUS
 62
     3
 10
-38.4999999998763087
 20
-11.0000000000145501
 30
0.0
 11
-38.4999999998181011
 21
-6.0
 31
0.0
  0
LINE
  5
3F9
  8
0
  6
CONTINUOUS
 62
     3
 10
36.7727272727424932
 20
-10.9999999999890807
 30
0.0
 11
38.499999999847212
 21
-11.0000000000109104
 31
0.0
  0
LINE
  5
3FA
  8
0
  6
CONTINUOUS
 62
     3
 10
37.0000000000072831
 20
-6.0000000000291029
 30
0.0
 11
38.4999999998763087
 21
-6.000000000010913
 31
0.0
  0
LINE
  5
3FB
  8
0
  6
CONTINUOUS
 62
     3
 10
38.499999999847212
 20
-11.0000000000109104
 30
0.0
 11
38.4999999998763087
 21
-6.000000000010913
 31
0.0
  0
LINE
  5
3FC
  8
0
  6
CONTINUOUS
 62
     3
 10
-13.0000000002109992
 20
-92.8531382243272532
 30
0.0
 11
-13.0000000000800302
 21
-84.8982928239092729
 31
0.0
  0
LINE
  5
3FD
  8
0
  6
CONTINUOUS
 62
     3
 10
12.9999999999927205
 20
-92.8531382243709231
 30
0.0
 11
13.0000000000509299
 21
-84.8982928239638568
 31
0.0
  0
LINE
  5
3FE
  8
0
  6
CONTINUOUS
 62
     3
 10
20.2500000000072795
 20
-83.2986418387917951
 30
0.0
 11
20.2499999999781686
 21
-82.2619037980148278
 31
0.0
  0
LINE
  5
3FF
  8
0
  6
CONTINUOUS
 62
     3
 10
-20.2499999999927205
 20
-83.2986418387445156
 30
0.0
 11
-20.2500000000218314
 21
-82.2619037979020504
 31
0.0
  0
LINE
  5
400
  8
0
  6
CONTINUOUS
 62
     3
 10
37.0000000000218279
 20
-6.000000000014551
 30
0.0
 11
33.8421537374597392
 21
-75.4726177762313455
 31
0.0
  0
LINE
  5
401
  8
0
  6
CONTINUOUS
 62
     3
 10
-37.0000000000072831
 20
-6.0000000000036371
 30
0.0
 11
-33.842153737488843
 21
-75.4726177760785504
 31
0.0
  0
LINE
  5
402
  8
0
  6
CONTINUOUS
 62
     3
 10
35.0000000000145519
 20
-1.999999999996362
 30
0.0
 11
34.9999999999927311
 21
0.000000000007276
 31
0.0
  0
LINE
  5
403
  8
0
  6
CONTINUOUS
 62
     3
 10
-34.9999999999781721
 20
-1.999999999992724
 30
0.0
 11
-34.9999999999927311
 21
-0.000000000007276
 31
0.0
  0
LINE
  5
404
  8
0
  6
CONTINUOUS
 62
     3
 10
-37.0000000000072831
 20
-6.0000000000036371
 30
0.0
 11
-37.0000000000218279
 21
-2.0
 31
0.0
  0
LINE
  5
405
  8
0
  6
CONTINUOUS
 62
     3
 10
37.0000000000218279
 20
-2.0000000000036371
 30
0.0
 11
-37.0000000000218279
 21
-2.0
 31
0.0
  0
LINE
  5
406
  8
0
  6
CONTINUOUS
 62
     3
 10
37.0000000000218279
 20
-6.000000000014551
 30
0.0
 11
37.0000000000218279
 21
-2.0000000000036371
 31
0.0
  0
LINE
  5
407
  8
0
  6
CONTINUOUS
 62
     3
 10
34.9999999999927311
 20
0.000000000007276
 30
0.0
 11
-34.9999999999927311
 21
-0.000000000007276
 31
0.0
  0
ENDBLK
  5
408
  8
0
 62
     7
  0
BLOCK
  8
0
 62
     7
  2
A$C0FEC19CC
 70
     0
 10
0.0
 20
0.0
 30
0.0
  3
A$C0FEC19CC
  1

  0
LINE
  5
40D
  8
0
  6
CONTINUOUS
 62
     3
 10
-0.0000040485815589
 20
8.9999951167483232
 30
0.0
 11
-0.0000040485815589
 21
10.9999951167483196
 31
0.0
  0
LINE
  5
40E
  8
0
  6
CONTINUOUS
 62
     3
 10
-0.0000040485815589
 20
8.9999951167483232
 30
0.0
 11
677.9999959514175316
 21
8.9999951167483232
 31
0.0
  0
LINE
  5
40F
  8
0
  6
CONTINUOUS
 62
     3
 10
14.9999959514184393
 20
6.7419951167503314
 30
0.0
 11
14.9999959514184393
 21
8.9999951167483232
 31
0.0
  0
LINE
  5
410
  8
0
  6
CONTINUOUS
 62
     3
 10
14.9999959514184393
 20
6.7419951167503314
 30
0.0
 11
662.9999959514175316
 21
6.7419951167503314
 31
0.0
  0
LINE
  5
411
  8
0
  6
CONTINUOUS
 62
     3
 10
662.9999959514175316
 20
6.7419951167503314
 30
0.0
 11
662.9999959514175316
 21
8.9999951167483232
 31
0.0
  0
LINE
  5
412
  8
0
  6
CONTINUOUS
 62
     4
 10
2.7499959519586801
 20
7.4999951167192194
 30
0.0
 11
13.2499959519586792
 21
7.4999951167192194
 31
0.0
  0
LINE
  5
413
  8
0
  6
CONTINUOUS
 62
     4
 10
13.2499959519586792
 20
7.4999951167192194
 30
0.0
 11
13.2499959519586792
 21
8.9999951167192194
 31
0.0
  0
LINE
  5
414
  8
0
  6
CONTINUOUS
 62
     4
 10
2.7499959519586801
 20
7.4999951167192194
 30
0.0
 11
2.7499959519568611
 21
8.9999951167192194
 31
0.0
  0
LINE
  5
415
  8
0
  6
CONTINUOUS
 62
     4
 10
1.9999959519586801
 20
6.4999951167192194
 30
0.0
 11
13.9999959519568602
 21
6.4999951167192194
 31
0.0
  0
LINE
  5
416
  8
0
  6
CONTINUOUS
 62
     4
 10
13.9999959519586792
 20
0.9999951167192193
 30
0.0
 11
13.9999959519568602
 21
6.4999951167192194
 31
0.0
  0
LINE
  5
417
  8
0
  6
CONTINUOUS
 62
     4
 10
1.9999959519604991
 20
0.9999951167192193
 30
0.0
 11
1.9999959519586801
 21
6.4999951167192194
 31
0.0
  0
LINE
  5
418
  8
0
  6
CONTINUOUS
 62
     4
 10
1.9999959519604991
 20
0.9999951167192193
 30
0.0
 11
13.9999959519586792
 21
0.9999951167192193
 31
0.0
  0
LINE
  5
419
  8
0
  6
CONTINUOUS
 62
     4
 10
12.1999959519557706
 20
0.9999951167192193
 30
0.0
 11
12.1999959519612293
 21
6.4999951167192194
 31
0.0
  0
LINE
  5
41A
  8
0
  6
CONTINUOUS
 62
     4
 10
10.3999959519610403
 20
0.9999951167192193
 30
0.0
 11
10.3999959519610403
 21
6.4999951167192194
 31
0.0
  0
LINE
  5
41B
  8
0
  6
CONTINUOUS
 62
     4
 10
8.5999959519572258
 20
0.9999951167192193
 30
0.0
 11
8.5999959519608637
 21
6.4999951167192194
 31
0.0
  0
LINE
  5
41C
  8
0
  6
CONTINUOUS
 62
     4
 10
6.7999959519634103
 20
0.9999951167192193
 30
0.0
 11
6.7999959519615913
 21
6.4999951167192194
 31
0.0
  0
LINE
  5
41D
  8
0
  6
CONTINUOUS
 62
     4
 10
4.9999959519568611
 20
0.9999951167192193
 30
0.0
 11
4.9999959519604991
 21
6.4999951167192194
 31
0.0
  0
LINE
  5
41E
  8
0
  6
CONTINUOUS
 62
     4
 10
3.199995951962137
 20
0.9999951167192193
 30
0.0
 11
3.1999959519612271
 21
6.4999951167155814
 31
0.0
  0
LINE
  5
41F
  8
0
  6
CONTINUOUS
 62
     4
 10
664.7499959520714583
 20
7.4999951167519612
 30
0.0
 11
675.2499959520713446
 21
7.4999951167519612
 31
0.0
  0
LINE
  5
420
  8
0
  6
CONTINUOUS
 62
     4
 10
675.2499959520713446
 20
7.4999951167519612
 30
0.0
 11
675.2499959520713446
 21
8.9999951167519612
 31
0.0
  0
LINE
  5
421
  8
0
  6
CONTINUOUS
 62
     4
 10
664.7499959520714583
 20
7.4999951167519612
 30
0.0
 11
664.7499959520696393
 21
8.9999951167519612
 31
0.0
  0
LINE
  5
422
  8
0
  6
CONTINUOUS
 62
     4
 10
663.9999959520713446
 20
6.4999951167519612
 30
0.0
 11
675.9999959520696393
 21
6.4999951167519612
 31
0.0
  0
LINE
  5
423
  8
0
  6
CONTINUOUS
 62
     4
 10
675.9999959520713446
 20
0.9999951167519611
 30
0.0
 11
675.9999959520696393
 21
6.4999951167519612
 31
0.0
  0
LINE
  5
424
  8
0
  6
CONTINUOUS
 62
     4
 10
663.9999959520713446
 20
0.9999951167519611
 30
0.0
 11
663.9999959520713446
 21
6.4999951167519612
 31
0.0
  0
LINE
  5
425
  8
0
  6
CONTINUOUS
 62
     4
 10
663.9999959520713446
 20
0.9999951167519611
 30
0.0
 11
675.9999959520696393
 21
0.9999951167519611
 31
0.0
  0
LINE
  5
426
  8
0
  6
CONTINUOUS
 62
     4
 10
674.1999959520685479
 20
0.9999951167519611
 30
0.0
 11
674.1999959520740049
 21
6.4999951167519612
 31
0.0
  0
LINE
  5
427
  8
0
  6
CONTINUOUS
 62
     4
 10
672.3999959520747325
 20
0.9999951167519611
 30
0.0
 11
672.3999959520718903
 21
6.4999951167519612
 31
0.0
  0
LINE
  5
428
  8
0
  6
CONTINUOUS
 62
     4
 10
670.5999959520689799
 20
0.9999951167519611
 30
0.0
 11
670.5999959520736411
 21
6.4999951167519612
 31
0.0
  0
LINE
  5
429
  8
0
  6
CONTINUOUS
 62
     4
 10
668.7999959520769835
 20
0.9999951167519611
 30
0.0
 11
668.7999959520725497
 21
6.4999951167519612
 31
0.0
  0
LINE
  5
42A
  8
0
  6
CONTINUOUS
 62
     4
 10
666.9999959520696393
 20
0.9999951167519611
 30
0.0
 11
666.9999959520731636
 21
6.4999951167519612
 31
0.0
  0
LINE
  5
42B
  8
0
  6
CONTINUOUS
 62
     4
 10
665.1999959520757102
 20
0.9999951167519611
 30
0.0
 11
665.1999959520740049
 21
6.4999951167519612
 31
0.0
  0
LINE
  5
42C
  8
0
  6
CONTINUOUS
 62
     3
 10
677.9999959514175316
 20
8.9999951166828396
 30
0.0
 11
677.9999959514175316
 21
10.9999951167483196
 31
0.0
  0
ARC
  5
42D
  8
0
  6
CONTINUOUS
 62
     4
 10
7.9999959519586801
 20
18.4999951167301298
 30
0.0
 40
18.500000000012701
 50
251.0753555839849867
 51
288.9246444160149849
  0
ARC
  5
42E
  8
0
  6
CONTINUOUS
 62
     4
 10
3.249995951971413
 20
6.9999951167192194
 30
0.0
 40
0.5
 50
270.0
 51
90.0
  0
ARC
  5
42F
  8
0
  6
CONTINUOUS
 62
     4
 10
12.7499959519714103
 20
6.9999951167192194
 30
0.0
 40
0.5000000000003411
 50
90.0
 51
270.0
  0
ARC
  5
430
  8
0
  6
CONTINUOUS
 62
     4
 10
669.9999959520713446
 20
18.4999951167665095
 30
0.0
 40
18.500000000012701
 50
251.0753555839849867
 51
288.9246444160149849
  0
ARC
  5
431
  8
0
  6
CONTINUOUS
 62
     4
 10
665.2499959520841912
 20
6.9999951167519612
 30
0.0
 40
0.5
 50
270.0
 51
90.0
  0
ARC
  5
432
  8
0
  6
CONTINUOUS
 62
     4
 10
674.7499959520840775
 20
6.9999951167519612
 30
0.0
 40
0.5000000000003411
 50
90.0
 51
270.0
  0
LINE
  5
433
  8
0
  6
CONTINUOUS
 62
     3
 10
-0.0000040485815589
 20
10.9999951167483196
 30
0.0
 11
677.9999959514175316
 21
10.9999951167483196
 31
0.0
  0
ENDBLK
  5
434
  8
0
 62
     7
  0
BLOCK
  8
0
 62
     7
  2
A$C187A0370
 70
     0
 10
0.0
 20
0.0
 30
0.0
  3
A$C187A0370
  1

  0
LINE
  5
439
  8
0
  6
CONTINUOUS
 62
     3
 10
160.5040301612802978
 20
-114.221296802996207
 30
0.0
 11
187.5040301612839926
 21
-114.2212968029889026
 31
0.0
  0
LINE
  5
43A
  8
0
  6
CENTER2
 62
     4
 10
214.7612982755971132
 20
-149.2212968029998024
 30
0.0
 11
133.2467620470004874
 21
-149.2212968029998024
 31
0.0
  0
LINE
  5
43B
  8
0
  6
CONTINUOUS
 62
     3
 10
187.5040301612839926
 20
-114.2212968029889026
 30
0.0
 11
187.504030161282202
 21
-173.0959695756318979
 31
0.0
  0
LINE
  5
43C
  8
0
  6
CONTINUOUS
 62
     3
 10
160.5040301612785072
 20
-173.0959695756318979
 30
0.0
 11
160.5040301612802978
 21
-114.221296802996207
 31
0.0
  0
LINE
  5
43D
  8
0
  6
CONTINUOUS
 62
     3
 10
162.5040301612802978
 20
-122.2212968029998024
 30
0.0
 11
185.5040301612839926
 21
-122.221296802996207
 31
0.0
  0
LINE
  5
43E
  8
0
  6
CONTINUOUS
 62
     3
 10
151.5040301613003066
 20
69.7787031970801763
 30
0.0
 11
196.5040301613003066
 21
69.7787031970801763
 31
0.0
  0
LINE
  5
43F
  8
0
  6
CENTER2
 62
     4
 10
174.0040301612984877
 20
-194.1236045803271111
 30
0.0
 11
174.0040301613003066
 21
85.7787031970019456
 31
0.0
  0
LINE
  5
440
  8
0
  6
CONTINUOUS
 62
     3
 10
156.0040301612912117
 20
69.7787031969492091
 30
0.0
 11
156.0040301612912117
 21
52.7787031969492091
 31
0.0
  0
LINE
  5
441
  8
0
  6
CONTINUOUS
 62
     3
 10
156.0040301612912117
 20
52.7787031969492091
 30
0.0
 11
157.0040301613003066
 21
51.7787031969492091
 31
0.0
  0
LINE
  5
442
  8
0
  6
CONTINUOUS
 62
     3
 10
192.0040301612912117
 20
69.7787031969492091
 30
0.0
 11
192.0040301612912117
 21
52.7787031969492091
 31
0.0
  0
LINE
  5
443
  8
0
  6
CONTINUOUS
 62
     3
 10
192.0040301612912117
 20
52.7787031969492091
 30
0.0
 11
191.0040301612820883
 21
51.7787031969492091
 31
0.0
  0
LINE
  5
444
  8
0
  6
CONTINUOUS
 62
     3
 10
157.0040301613003066
 20
51.7787031969492091
 30
0.0
 11
191.0040301612820883
 21
51.7787031969492091
 31
0.0
  0
LINE
  5
445
  8
0
  6
CONTINUOUS
 62
     3
 10
160.2541676612923141
 20
43.7788031969503209
 30
0.0
 11
187.7538926612928094
 21
43.7788031969503209
 31
0.0
  0
LINE
  5
446
  8
0
  6
CONTINUOUS
 62
     3
 10
187.7538926612928094
 20
43.7788031969503209
 30
0.0
 11
187.7538926612901093
 21
51.77870319695284
 31
0.0
  0
LINE
  5
447
  8
0
  6
CONTINUOUS
 62
     3
 10
160.2541676612885908
 20
51.7787031969273812
 30
0.0
 11
160.2541676612923141
 21
43.7788031969503209
 31
0.0
  0
LINE
  5
448
  8
0
  6
CONTINUOUS
 62
     3
 10
156.0040301612856979
 20
52.7787031969892269
 30
0.0
 11
192.0040301612912117
 21
52.7787031969892269
 31
0.0
  0
LINE
  5
449
  8
0
  6
CONTINUOUS
 62
     3
 10
186.5040301612758071
 20
-114.2212968029889026
 30
0.0
 11
186.504030161255713
 21
43.7788031968811922
 31
0.0
  0
LINE
  5
44A
  8
0
  6
CONTINUOUS
 62
     3
 10
161.5040301612758071
 20
-114.221296802996207
 30
0.0
 11
161.5040301612621079
 21
43.7788031970339873
 31
0.0
  0
LINE
  5
44B
  8
0
  6
CONTINUOUS
 62
     4
 10
312.00403016124028
 20
81.5207031970057869
 30
0.0
 11
312.00403016124028
 21
78.7787031970001408
 31
0.0
  0
LINE
  5
44C
  8
0
  6
CONTINUOUS
 62
     3
 10
202.4831605329104036
 20
78.7787031970001408
 30
0.0
 11
202.4831605328485864
 21
75.2787031970547105
 31
0.0
  0
LINE
  5
44D
  8
0
  6
CONTINUOUS
 62
     3
 10
145.5248997899684014
 20
78.7787031970001408
 30
0.0
 11
145.5248997897502079
 21
75.2787031970729004
 31
0.0
  0
LINE
  5
44E
  8
0
  6
CONTINUOUS
 62
     4
 10
9.0040301612430085
 20
78.7787031970001408
 30
0.0
 11
312.00403016124028
 21
78.7787031970001408
 31
0.0
  0
LINE
  5
44F
  8
0
  6
CONTINUOUS
 62
     4
 10
9.0040301612430085
 20
81.5207031970057869
 30
0.0
 11
9.0040301612430085
 21
78.7787031970001408
 31
0.0
  0
ARC
  5
450
  8
0
  6
CONTINUOUS
 62
     3
 10
174.0040301612802978
 20
-149.2212968029961928
 30
0.0
 40
28.5
 50
118.2737136312947968
 51
61.7262863685755008
  0
ARC
  5
451
  8
0
  6
CONTINUOUS
 62
     3
 10
174.0040301612802978
 20
-149.2212968029961928
 30
0.0
 40
20.0
 50
132.4541502043115031
 51
227.5458497956884969
  0
ARC
  5
452
  8
0
  6
CONTINUOUS
 62
     3
 10
174.0040301612802978
 20
-149.2212968029961928
 30
0.0
 40
23.0
 50
125.9413298913347035
 51
234.0586701086652113
  0
ARC
  5
453
  8
0
  6
CONTINUOUS
 62
     3
 10
174.0040301612802978
 20
-149.2212968029961928
 30
0.0
 40
20.0
 50
312.45415020445148
 51
47.5458497955484773
  0
ARC
  5
454
  8
0
  6
CONTINUOUS
 62
     3
 10
174.0040301612802978
 20
-149.2212968029961928
 30
0.0
 40
23.0
 50
305.9413298911917991
 51
54.0586701088081583
  0
ARC
  5
455
  8
0
  6
CONTINUOUS
 62
     3
 10
185.5040301612785072
 20
-173.0959695756318979
 30
0.0
 40
2.0
 50
295.7192795022119753
 51
0.0
  0
ARC
  5
456
  8
0
  6
CONTINUOUS
 62
     3
 10
162.5040301612785072
 20
-173.0959695756318979
 30
0.0
 40
2.0
 50
180.0
 51
244.2807204977879962
  0
ARC
  5
457
  8
0
  6
CONTINUOUS
 62
     3
 10
162.5040301612802978
 20
-124.2212968030034972
 30
0.0
 40
2.0
 50
90.0
 51
180.0
  0
ARC
  5
458
  8
0
  6
CONTINUOUS
 62
     3
 10
185.5040301612839926
 20
-124.221296802996207
 30
0.0
 40
2.0
 50
0.0
 51
90.0
  0
ARC
  5
459
  8
0
  6
CONTINUOUS
 62
     3
 10
196.5040301613003066
 20
75.7787031970801763
 30
0.0
 40
6.0
 50
270.0
 51
355.219808152556709
  0
ARC
  5
45A
  8
0
  6
CONTINUOUS
 62
     3
 10
151.5040301613003066
 20
75.7787031970801763
 30
0.0
 40
6.0
 50
184.7801918472339935
 51
270.0
  0
LINE
  5
45B
  8
0
  6
CONTINUOUS
 62
     4
 10
9.0040301612430085
 20
81.5207031970057869
 30
0.0
 11
312.00403016124028
 21
81.5207031970057869
 31
0.0
  0
ENDBLK
  5
45C
  8
0
 62
     7
  0
BLOCK
  8
0
 62
     7
  2
A$C35C419CB
 70
     0
 10
0.0
 20
0.0
 30
0.0
  3
A$C35C419CB
  1

  0
LINE
  5
461
  8
0
  6
CONTINUOUS
 62
     4
 10
77.0001157449987659
 20
823.9520739547295989
 30
0.0
 11
376.0001157450024039
 21
823.9520739547515404
 31
0.0
  0
LINE
  5
462
  8
0
  6
CONTINUOUS
 62
     4
 10
75.0001157449996754
 20
833.9520739547295989
 30
0.0
 11
378.000115745005985
 21
833.9520739547479025
 31
0.0
  0
LINE
  5
463
  8
0
  6
CONTINUOUS
 62
     4
 10
77.0001157449978564
 20
136.9520739547332937
 30
0.0
 11
376.0001157449923994
 21
136.9520739547405981
 31
0.0
  0
LINE
  5
464
  8
0
  6
CONTINUOUS
 62
     4
 10
75.0001157449978564
 20
126.9520739547332937
 30
0.0
 11
378.0001157449951279
 21
126.9520739547370027
 31
0.0
  0
LINE
  5
465
  8
0
  6
CONTINUOUS
 62
     4
 10
75.0001157450005849
 20
833.9520739547295989
 30
0.0
 11
75.0001157449960374
 21
126.9520739547370027
 31
0.0
  0
LINE
  5
466
  8
0
  6
CONTINUOUS
 62
     4
 10
378.0001157449923994
 20
126.9520739547405981
 30
0.0
 11
378.000115745005985
 21
833.9520739547479025
 31
0.0
  0
LINE
  5
467
  8
0
  6
CONTINUOUS
 62
     4
 10
440.5001157447732112
 20
727.9520739545476999
 30
0.0
 11
440.5001157447667879
 21
766.9520739546242112
 31
0.0
  0
LINE
  5
468
  8
0
  6
CONTINUOUS
 62
     4
 10
390.5001157448805884
 20
727.9520739544968819
 30
0.0
 11
390.5001157446658908
 21
766.9520739545441756
 31
0.0
  0
LINE
  5
469
  8
0
  6
CONTINUOUS
 62
     4
 10
393.5001157448822937
 20
724.9520739545478136
 30
0.0
 11
437.5001157447749733
 21
724.9520739545114338
 31
0.0
  0
LINE
  5
46A
  8
0
  6
CONTINUOUS
 62
     4
 10
393.5001157446586149
 20
769.9520739545150718
 30
0.0
 11
437.5001157447586024
 21
769.9520739546460391
 31
0.0
  0
LINE
  5
46B
  8
0
  6
CONTINUOUS
 62
     3
 10
0.0001157450069513
 20
972.9520769547852979
 30
0.0
 11
480.0001157450033134
 21
972.9520769547925738
 31
0.0
  0
LINE
  5
46C
  8
0
  6
CONTINUOUS
 62
     3
 10
0.0001157450069513
 20
62.9520769547852979
 30
0.0
 11
0.0001157450069513
 21
972.9520769547852979
 31
0.0
  0
LINE
  5
46D
  8
0
  6
CONTINUOUS
 62
     3
 10
0.0001157450069513
 20
62.9520769547852979
 30
0.0
 11
480.0001157450024039
 21
62.9520769547852979
 31
0.0
  0
LINE
  5
46E
  8
0
  6
CONTINUOUS
 62
     3
 10
480.0001157450024039
 20
62.9520769547852979
 30
0.0
 11
480.0001157450033134
 21
972.9520769547925738
 31
0.0
  0
CIRCLE
  5
46F
  8
0
  6
CONTINUOUS
 62
     4
 10
425.5001157447094897
 20
754.9520739546060213
 30
0.0
 40
3.0
  0
CIRCLE
  5
470
  8
0
  6
CONTINUOUS
 62
     4
 10
405.5001157447094897
 20
754.9520739546060213
 30
0.0
 40
3.0
  0
CIRCLE
  5
471
  8
0
  6
CONTINUOUS
 62
     4
 10
415.5001157447094897
 20
739.9520739546060213
 30
0.0
 40
3.0
  0
CIRCLE
  5
472
  8
0
  6
CONTINUOUS
 62
     4
 10
420.0001157450050755
 20
468.4520739547987773
 30
0.0
 40
17.5
  0
CIRCLE
  5
473
  8
0
  6
CONTINUOUS
 62
     4
 10
420.0001157450050755
 20
468.4520739547987773
 30
0.0
 40
29.0
  0
ARC
  5
474
  8
0
  6
CONTINUOUS
 62
     4
 10
77.0001157449987659
 20
825.9520739547295989
 30
0.0
 40
2.0
 50
180.0
 51
270.0000000000521254
  0
ARC
  5
475
  8
0
  6
CONTINUOUS
 62
     4
 10
376.0001157450033134
 20
825.9520739547479025
 30
0.0
 40
2.0
 50
269.9999999999478746
 51
0.0
  0
ARC
  5
476
  8
0
  6
CONTINUOUS
 62
     4
 10
376.0001157449942184
 20
134.9520739547405981
 30
0.0
 40
2.0
 50
0.0
 51
90.0000000000521254
  0
ARC
  5
477
  8
0
  6
CONTINUOUS
 62
     4
 10
77.0001157449960374
 20
134.9520739547332937
 30
0.0
 40
2.0
 50
89.9999999999478888
 51
180.0
  0
ARC
  5
478
  8
0
  6
CONTINUOUS
 62
     4
 10
437.5001157447667879
 20
766.9520739546204595
 30
0.0
 40
3.0
 50
0.0
 51
90.0000000001042082
  0
ARC
  5
479
  8
0
  6
CONTINUOUS
 62
     4
 10
437.5001157447732112
 20
727.9520739545476999
 30
0.0
 40
3.0
 50
270.0000000000521254
 51
0.0
  0
ARC
  5
47A
  8
0
  6
CONTINUOUS
 62
     4
 10
393.5001157448822937
 20
727.9520739545114338
 30
0.0
 40
3.0
 50
180.000000000208388
 51
270.0
  0
ARC
  5
47B
  8
0
  6
CONTINUOUS
 62
     4
 10
393.5001157446658908
 20
766.9520739545441756
 30
0.0
 40
3.0
 50
90.0000000001563336
 51
180.0
  0
ARC
  5
47C
  8
0
  6
CONTINUOUS
 62
     3
 10
240.0001157449987943
 20
342.7520769541588948
 30
0.0
 40
28.5
 50
335.124275852546873
 51
38.7129202391822105
  0
ARC
  5
47D
  8
0
  6
CONTINUOUS
 62
     3
 10
240.0001157449987943
 20
342.7520769541588948
 30
0.0
 40
28.5
 50
141.2870797608177895
 51
204.8757241474530986
  0
LINE
  5
47E
  8
0
  6
CONTINUOUS
 62
     3
 10
212.7501157449987943
 20
306.2520769541587811
 30
0.0
 11
267.2501157449988227
 21
306.2520769541587811
 31
0.0
1001
ACAD
1000
ASC_BOUNDS
1002
{
1070
    19
1002
}
  0
LINE
  5
47F
  8
0
  6
CONTINUOUS
 62
     4
 10
239.2600351228647924
 20
337.8447963222387784
 30
0.0
 11
242.9214036603152067
 21
341.4347752153407782
 31
0.0
  0
CIRCLE
  5
480
  8
0
  6
CONTINUOUS
 62
     4
 10
240.0001157449987943
 20
340.7520769541588948
 30
0.0
 40
3.0
  0
LINE
  5
481
  8
0
  6
CONTINUOUS
 62
     4
 10
237.0098628925188962
 20
340.5104411161083249
 30
0.0
 11
240.300577225574699
 21
343.7369928489025028
 31
0.0
  0
LINE
  5
482
  8
0
  6
CONTINUOUS
 62
     4
 10
237.024498254104401
 20
341.13378436552739
 30
0.0
 11
239.6770666558913945
 21
343.7346327853265961
 31
0.0
  0
LINE
  5
483
  8
0
  6
CONTINUOUS
 62
     4
 10
238.7998996525165865
 20
338.0026258577855174
 30
0.0
 11
242.7726639225730025
 21
341.8979288656336735
 31
0.0
  0
CIRCLE
  5
484
  8
0
  6
CONTINUOUS
 62
     4
 10
240.0001157449987943
 20
340.7520769541588948
 30
0.0
 40
5.0
  0
CIRCLE
  5
485
  8
0
  6
CONTINUOUS
 62
     4
 10
240.0001157449987943
 20
340.7520769541588948
 30
0.0
 40
6.0
  0
POINT
  5
486
  8
0
  6
CONTINUOUS
 62
     3
 10
213.0001157449987943
 20
319.2520769541587811
 30
0.0
  0
POINT
  5
487
  8
0
  6
CONTINUOUS
 62
     3
 10
267.0001157449988227
 20
319.2520769541587811
 30
0.0
  0
TEXT
  5
488
  8
0
 62
     1
 10
404.6551029325946729
 20
745.4903730563163435
 30
0.0
 40
4.0
  1
殺菌灯時間計
 41
0.9
  7
\U+FF7D\U+FF80\U+FF72\U+FF991
  0
TEXT
  5
489
  8
0
 62
     1
 10
402.5360851374553022
 20
729.9951688897380109
 30
0.0
 40
4.0
  1
時間計リセット
 41
0.9
  7
\U+FF7D\U+FF80\U+FF72\U+FF991
  0
LINE
  5
48A
  8
0
  6
CONTINUOUS
 62
     3
 10
226.500115744998709
 20
391.7520769541587811
 30
0.0
 11
226.500115744998709
 21
332.7520769541587811
 31
0.0
1001
ACAD
1000
ASC_BOUNDS
1002
{
1070
    19
1002
}
  0
LINE
  5
48B
  8
0
  6
CONTINUOUS
 62
     3
 10
226.500115744998709
 20
332.7520769541587811
 30
0.0
 11
253.500115744998709
 21
332.7520769541587811
 31
0.0
1001
ACAD
1000
ASC_BOUNDS
1002
{
1070
    19
1002
}
  0
LINE
  5
48C
  8
0
  6
CONTINUOUS
 62
     3
 10
253.500115744998709
 20
332.7520769541587811
 30
0.0
 11
253.500115744998709
 21
391.7520769541587811
 31
0.0
1001
ACAD
1000
ASC_BOUNDS
1002
{
1070
    19
1002
}
  0
LINE
  5
48D
  8
0
  6
CONTINUOUS
 62
     3
 10
213.0001157449987943
 20
320.7520769541587811
 30
0.0
 11
217.0001157449987943
 21
355.7520769541587811
 31
0.0
1001
ACAD
1000
ASC_BOUNDS
1002
{
1070
    19
1002
}
  0
LINE
  5
48E
  8
0
  6
CONTINUOUS
 62
     3
 10
263.0001157449988227
 20
355.7520769541587811
 30
0.0
 11
267.0001157449988227
 21
320.7520769541587811
 31
0.0
1001
ACAD
1000
ASC_BOUNDS
1002
{
1070
    19
1002
}
  0
LINE
  5
48F
  8
0
  6
CONTINUOUS
 62
     3
 10
213.0001157449987943
 20
320.7520769541587811
 30
0.0
 11
213.0001157449987943
 21
317.7520769541588948
 31
0.0
  0
LINE
  5
490
  8
0
  6
CONTINUOUS
 62
     3
 10
213.0001157449987943
 20
317.7520769541588948
 30
0.0
 11
267.0001157449988227
 21
317.7520769541588948
 31
0.0
  0
LINE
  5
491
  8
0
  6
CONTINUOUS
 62
     3
 10
267.0001157449988227
 20
317.7520769541588948
 30
0.0
 11
267.0001157449988227
 21
320.7520769541587811
 31
0.0
  0
LINE
  5
492
  8
0
  6
CONTINUOUS
 62
     3
 10
267.0001157449988227
 20
320.7520769541587811
 30
0.0
 11
213.0001157449987943
 21
320.7520769541587811
 31
0.0
  0
LINE
  5
493
  8
0
  6
CONTINUOUS
 62
     3
 10
213.5001157449987943
 20
314.7520769541587811
 30
0.0
 11
213.5001157449987943
 21
316.7520769541587811
 31
0.0
  0
LINE
  5
494
  8
0
  6
CONTINUOUS
 62
     3
 10
213.5001157449987943
 20
316.7520769541587811
 30
0.0
 11
266.5001157449988227
 21
316.7520769541587811
 31
0.0
  0
LINE
  5
495
  8
0
  6
CONTINUOUS
 62
     3
 10
266.5001157449988227
 20
316.7520769541587811
 30
0.0
 11
266.5001157449988227
 21
314.7520769541587811
 31
0.0
  0
LINE
  5
496
  8
0
  6
CONTINUOUS
 62
     3
 10
214.5001157449987943
 20
316.7520769541587811
 30
0.0
 11
214.5001157449987943
 21
317.7520769541588948
 31
0.0
  0
LINE
  5
497
  8
0
  6
CONTINUOUS
 62
     3
 10
265.5001157449988227
 20
317.7520769541588948
 30
0.0
 11
265.5001157449988227
 21
316.7520769541587811
 31
0.0
  0
LINE
  5
498
  8
0
  6
CONTINUOUS
 62
     3
 10
212.7501157449987943
 20
306.2520769541587811
 30
0.0
 11
212.7501157449987943
 21
314.7520769541587811
 31
0.0
1001
ACAD
1000
ASC_BOUNDS
1002
{
1070
    19
1002
}
  0
LINE
  5
499
  8
0
  6
CONTINUOUS
 62
     3
 10
212.7501157449987943
 20
314.7520769541587811
 30
0.0
 11
267.2501157449988227
 21
314.7520769541587811
 31
0.0
1001
ACAD
1000
ASC_BOUNDS
1002
{
1070
    19
1002
}
  0
LINE
  5
49A
  8
0
  6
CONTINUOUS
 62
     3
 10
267.2501157449988227
 20
314.7520769541587811
 30
0.0
 11
267.2501157449988227
 21
306.2520769541587811
 31
0.0
1001
ACAD
1000
ASC_BOUNDS
1002
{
1070
    19
1002
}
  0
LINE
  5
49B
  8
0
  6
CONTINUOUS
 62
     3
 10
267.2501157449988227
 20
306.2520769541587811
 30
0.0
 11
266.7501157449988227
 21
305.7520769541587811
 31
0.0
1001
ACAD
1000
ASC_BOUNDS
1002
{
1070
    19
1002
}
  0
LINE
  5
49C
  8
0
  6
CONTINUOUS
 62
     3
 10
266.7501157449988227
 20
305.7520769541587811
 30
0.0
 11
213.2501157449987943
 21
305.7520769541587811
 31
0.0
1001
ACAD
1000
ASC_BOUNDS
1002
{
1070
    19
1002
}
  0
LINE
  5
49D
  8
0
  6
CONTINUOUS
 62
     3
 10
213.2501157449987943
 20
305.7520769541587811
 30
0.0
 11
212.7501157449987943
 21
306.2520769541587811
 31
0.0
1001
ACAD
1000
ASC_BOUNDS
1002
{
1070
    19
1002
}
  0
LINE
  5
49E
  8
0
  6
CONTINUOUS
 62
     4
 10
239.000115744998709
 20
335.8530974685926935
 30
0.0
 11
239.000115744998709
 21
337.9236498294122271
 31
0.0
  0
LINE
  5
49F
  8
0
  6
CONTINUOUS
 62
     4
 10
241.000115744998709
 20
337.9236498294122271
 30
0.0
 11
241.000115744998709
 21
335.8530974685926935
 31
0.0
  0
LINE
  5
4A0
  8
0
  6
CONTINUOUS
 62
     4
 10
239.000115744998709
 20
343.5805040789055056
 30
0.0
 11
239.000115744998709
 21
345.6510564397249254
 31
0.0
  0
LINE
  5
4A1
  8
0
  6
CONTINUOUS
 62
     4
 10
241.000115744998709
 20
345.6510564397249254
 30
0.0
 11
241.000115744998709
 21
343.5805040789055056
 31
0.0
  0
ARC
  5
4A2
  8
0
  6
CONTINUOUS
 62
     3
 10
251.500115744998709
 20
391.7520769541587811
 30
0.0
 40
2.0
 50
0.0
 51
90.0
1001
ACAD
1000
ASC_BOUNDS
1002
{
1070
    19
1002
}
  0
LINE
  5
4A3
  8
0
  6
CONTINUOUS
 62
     3
 10
251.500115744998709
 20
393.7520769541587811
 30
0.0
 11
228.500115744998709
 21
393.7520769541587811
 31
0.0
1001
ACAD
1000
ASC_BOUNDS
1002
{
1070
    19
1002
}
  0
ARC
  5
4A4
  8
0
  6
CONTINUOUS
 62
     3
 10
228.500115744998709
 20
391.7520769541587811
 30
0.0
 40
2.0
 50
90.0
 51
180.0
1001
ACAD
1000
ASC_BOUNDS
1002
{
1070
    19
1002
}
  0
LINE
  5
4A5
  8
0
  6
CONTINUOUS
 62
     3
 10
253.500115744998709
 20
374.7520769541587811
 30
0.0
 11
259.1456218470157182
 21
374.7520769541587811
 31
0.0
1001
ACAD
1000
ASC_BOUNDS
1002
{
1070
    19
1002
}
  0
ARC
  5
4A6
  8
0
  6
CONTINUOUS
 62
     3
 10
259.1456218470157182
 20
373.7520769541588948
 30
0.0
 40
1.0
 50
8.9726266148205394
 51
90.0
1001
ACAD
1000
ASC_BOUNDS
1002
{
1070
    19
1002
}
  0
LINE
  5
4A7
  8
0
  6
CONTINUOUS
 62
     3
 10
260.1333848123430812
 20
373.9080395276324111
 30
0.0
 11
263.0001157449988227
 21
355.7520769541587811
 31
0.0
1001
ACAD
1000
ASC_BOUNDS
1002
{
1070
    19
1002
}
  0
LINE
  5
4A8
  8
0
  6
CONTINUOUS
 62
     3
 10
263.0001157449988227
 20
355.7520769541587811
 30
0.0
 11
217.0001157449987943
 21
355.7520769541587811
 31
0.0
1001
ACAD
1000
ASC_BOUNDS
1002
{
1070
    19
1002
}
  0
LINE
  5
4A9
  8
0
  6
CONTINUOUS
 62
     3
 10
217.0001157449987943
 20
355.7520769541587811
 30
0.0
 11
219.8668466776508126
 21
373.9080395276324111
 31
0.0
1001
ACAD
1000
ASC_BOUNDS
1002
{
1070
    19
1002
}
  0
ARC
  5
4AA
  8
0
  6
CONTINUOUS
 62
     3
 10
220.8546096429818135
 20
373.7520769541588948
 30
0.0
 40
0.9999999999997262
 50
90.0
 51
171.027373385179402
1001
ACAD
1000
ASC_BOUNDS
1002
{
1070
    19
1002
}
  0
LINE
  5
4AB
  8
0
  6
CONTINUOUS
 62
     3
 10
220.8546096429818135
 20
374.7520769541587811
 30
0.0
 11
226.500115744998709
 21
374.7520769541587811
 31
0.0
1001
ACAD
1000
ASC_BOUNDS
1002
{
1070
    19
1002
}
  0
LINE
  5
4AC
  8
0
  6
CENTER2
 62
     4
 10
240.0001157450068945
 20
-0.0000120458389574
 30
0.0
 11
240.0001157450068945
 21
1085.7520769541590653
 31
0.0
  0
ENDBLK
  5
4AD
  8
0
 62
     7
  0
BLOCK
  8
0
 62
     7
  2
A$C1C185600
 70
     0
 10
0.0
 20
0.0
 30
0.0
  3
A$C1C185600
  1

  0
LINE
  5
4B2
  8
0
  6
CONTINUOUS
 62
     4
 10
77.0001157449987659
 20
823.9520739547295989
 30
0.0
 11
376.0001157450024039
 21
823.9520739547515404
 31
0.0
  0
LINE
  5
4B3
  8
0
  6
CONTINUOUS
 62
     4
 10
75.0001157449996754
 20
833.9520739547295989
 30
0.0
 11
378.000115745005985
 21
833.9520739547479025
 31
0.0
  0
LINE
  5
4B4
  8
0
  6
CONTINUOUS
 62
     4
 10
77.0001157449978564
 20
136.9520739547332937
 30
0.0
 11
376.0001157449923994
 21
136.9520739547405981
 31
0.0
  0
LINE
  5
4B5
  8
0
  6
CONTINUOUS
 62
     4
 10
75.0001157449978564
 20
126.9520739547332937
 30
0.0
 11
378.0001157449951279
 21
126.9520739547370027
 31
0.0
  0
LINE
  5
4B6
  8
0
  6
CONTINUOUS
 62
     4
 10
75.0001157450005849
 20
833.9520739547295989
 30
0.0
 11
75.0001157449960374
 21
126.9520739547370027
 31
0.0
  0
LINE
  5
4B7
  8
0
  6
CONTINUOUS
 62
     4
 10
378.0001157449923994
 20
126.9520739547405981
 30
0.0
 11
378.000115745005985
 21
833.9520739547479025
 31
0.0
  0
LINE
  5
4B8
  8
0
  6
CONTINUOUS
 62
     4
 10
440.5001157447732112
 20
727.9520739545476999
 30
0.0
 11
440.5001157447667879
 21
766.9520739546242112
 31
0.0
  0
LINE
  5
4B9
  8
0
  6
CONTINUOUS
 62
     4
 10
390.5001157448805884
 20
727.9520739544968819
 30
0.0
 11
390.5001157446658908
 21
766.9520739545441756
 31
0.0
  0
LINE
  5
4BA
  8
0
  6
CONTINUOUS
 62
     4
 10
393.5001157448822937
 20
724.9520739545478136
 30
0.0
 11
437.5001157447749733
 21
724.9520739545114338
 31
0.0
  0
LINE
  5
4BB
  8
0
  6
CONTINUOUS
 62
     4
 10
393.5001157446586149
 20
769.9520739545150718
 30
0.0
 11
437.5001157447586024
 21
769.9520739546460391
 31
0.0
  0
LINE
  5
4BC
  8
0
  6
CONTINUOUS
 62
     3
 10
0.0001157450069513
 20
972.9520769547852979
 30
0.0
 11
480.0001157450033134
 21
972.9520769547925738
 31
0.0
  0
LINE
  5
4BD
  8
0
  6
CONTINUOUS
 62
     3
 10
0.0001157450069513
 20
62.9520769547852979
 30
0.0
 11
0.0001157450069513
 21
972.9520769547852979
 31
0.0
  0
LINE
  5
4BE
  8
0
  6
CONTINUOUS
 62
     3
 10
0.0001157450069513
 20
62.9520769547852979
 30
0.0
 11
480.0001157450024039
 21
62.9520769547852979
 31
0.0
  0
LINE
  5
4BF
  8
0
  6
CONTINUOUS
 62
     3
 10
480.0001157450024039
 20
62.9520769547852979
 30
0.0
 11
480.0001157450033134
 21
972.9520769547925738
 31
0.0
  0
CIRCLE
  5
4C0
  8
0
  6
CONTINUOUS
 62
     4
 10
425.5001157447094897
 20
754.9520739546060213
 30
0.0
 40
3.0
  0
CIRCLE
  5
4C1
  8
0
  6
CONTINUOUS
 62
     4
 10
405.5001157447094897
 20
754.9520739546060213
 30
0.0
 40
3.0
  0
CIRCLE
  5
4C2
  8
0
  6
CONTINUOUS
 62
     4
 10
415.5001157447094897
 20
739.9520739546060213
 30
0.0
 40
3.0
  0
CIRCLE
  5
4C3
  8
0
  6
CONTINUOUS
 62
     4
 10
420.0001157450050755
 20
468.4520739547987773
 30
0.0
 40
17.5
  0
CIRCLE
  5
4C4
  8
0
  6
CONTINUOUS
 62
     4
 10
420.0001157450050755
 20
468.4520739547987773
 30
0.0
 40
29.0
  0
ARC
  5
4C5
  8
0
  6
CONTINUOUS
 62
     4
 10
77.0001157449987659
 20
825.9520739547295989
 30
0.0
 40
2.0
 50
180.0
 51
270.0000000000521254
  0
ARC
  5
4C6
  8
0
  6
CONTINUOUS
 62
     4
 10
376.0001157450033134
 20
825.9520739547479025
 30
0.0
 40
2.0
 50
269.9999999999478746
 51
0.0
  0
ARC
  5
4C7
  8
0
  6
CONTINUOUS
 62
     4
 10
376.0001157449942184
 20
134.9520739547405981
 30
0.0
 40
2.0
 50
0.0
 51
90.0000000000521254
  0
ARC
  5
4C8
  8
0
  6
CONTINUOUS
 62
     4
 10
77.0001157449960374
 20
134.9520739547332937
 30
0.0
 40
2.0
 50
89.9999999999478888
 51
180.0
  0
ARC
  5
4C9
  8
0
  6
CONTINUOUS
 62
     4
 10
437.5001157447667879
 20
766.9520739546204595
 30
0.0
 40
3.0
 50
0.0
 51
90.0000000001042082
  0
ARC
  5
4CA
  8
0
  6
CONTINUOUS
 62
     4
 10
437.5001157447732112
 20
727.9520739545476999
 30
0.0
 40
3.0
 50
270.0000000000521254
 51
0.0
  0
ARC
  5
4CB
  8
0
  6
CONTINUOUS
 62
     4
 10
393.5001157448822937
 20
727.9520739545114338
 30
0.0
 40
3.0
 50
180.000000000208388
 51
270.0
  0
ARC
  5
4CC
  8
0
  6
CONTINUOUS
 62
     4
 10
393.5001157446658908
 20
766.9520739545441756
 30
0.0
 40
3.0
 50
90.0000000001563336
 51
180.0
  0
ARC
  5
4CD
  8
0
  6
CONTINUOUS
 62
     3
 10
240.0001157449987943
 20
342.7520769541588948
 30
0.0
 40
28.5
 50
335.124275852546873
 51
38.7129202391822105
  0
ARC
  5
4CE
  8
0
  6
CONTINUOUS
 62
     3
 10
240.0001157449987943
 20
342.7520769541588948
 30
0.0
 40
28.5
 50
141.2870797608177895
 51
204.8757241474530986
  0
LINE
  5
4CF
  8
0
  6
CONTINUOUS
 62
     3
 10
212.7501157449987943
 20
306.2520769541587811
 30
0.0
 11
267.2501157449988227
 21
306.2520769541587811
 31
0.0
1001
ACAD
1000
ASC_BOUNDS
1002
{
1070
    19
1002
}
  0
LINE
  5
4D0
  8
0
  6
CONTINUOUS
 62
     4
 10
239.2600351228647924
 20
337.8447963222387784
 30
0.0
 11
242.9214036603152067
 21
341.4347752153407782
 31
0.0
  0
CIRCLE
  5
4D1
  8
0
  6
CONTINUOUS
 62
     4
 10
240.0001157449987943
 20
340.7520769541588948
 30
0.0
 40
3.0
  0
LINE
  5
4D2
  8
0
  6
CONTINUOUS
 62
     4
 10
237.0098628925188962
 20
340.5104411161083249
 30
0.0
 11
240.300577225574699
 21
343.7369928489025028
 31
0.0
  0
LINE
  5
4D3
  8
0
  6
CONTINUOUS
 62
     4
 10
237.024498254104401
 20
341.13378436552739
 30
0.0
 11
239.6770666558913945
 21
343.7346327853265961
 31
0.0
  0
LINE
  5
4D4
  8
0
  6
CONTINUOUS
 62
     4
 10
238.7998996525165865
 20
338.0026258577855174
 30
0.0
 11
242.7726639225730025
 21
341.8979288656336735
 31
0.0
  0
CIRCLE
  5
4D5
  8
0
  6
CONTINUOUS
 62
     4
 10
240.0001157449987943
 20
340.7520769541588948
 30
0.0
 40
5.0
  0
CIRCLE
  5
4D6
  8
0
  6
CONTINUOUS
 62
     4
 10
240.0001157449987943
 20
340.7520769541588948
 30
0.0
 40
6.0
  0
POINT
  5
4D7
  8
0
  6
CONTINUOUS
 62
     3
 10
213.0001157449987943
 20
319.2520769541587811
 30
0.0
  0
POINT
  5
4D8
  8
0
  6
CONTINUOUS
 62
     3
 10
267.0001157449988227
 20
319.2520769541587811
 30
0.0
  0
TEXT
  5
4D9
  8
0
 62
     1
 10
404.6551029325946729
 20
745.4903730563163435
 30
0.0
 40
4.0
  1
殺菌灯時間計
 41
0.9
  7
\U+FF7D\U+FF80\U+FF72\U+FF991
  0
TEXT
  5
4DA
  8
0
 62
     1
 10
402.5360851374553022
 20
729.9951688897380109
 30
0.0
 40
4.0
  1
時間計リセット
 41
0.9
  7
\U+FF7D\U+FF80\U+FF72\U+FF991
  0
LINE
  5
4DB
  8
0
  6
CONTINUOUS
 62
     3
 10
226.500115744998709
 20
391.7520769541587811
 30
0.0
 11
226.500115744998709
 21
332.7520769541587811
 31
0.0
1001
ACAD
1000
ASC_BOUNDS
1002
{
1070
    19
1002
}
  0
LINE
  5
4DC
  8
0
  6
CONTINUOUS
 62
     3
 10
226.500115744998709
 20
332.7520769541587811
 30
0.0
 11
253.500115744998709
 21
332.7520769541587811
 31
0.0
1001
ACAD
1000
ASC_BOUNDS
1002
{
1070
    19
1002
}
  0
LINE
  5
4DD
  8
0
  6
CONTINUOUS
 62
     3
 10
253.500115744998709
 20
332.7520769541587811
 30
0.0
 11
253.500115744998709
 21
391.7520769541587811
 31
0.0
1001
ACAD
1000
ASC_BOUNDS
1002
{
1070
    19
1002
}
  0
LINE
  5
4DE
  8
0
  6
CONTINUOUS
 62
     3
 10
213.0001157449987943
 20
320.7520769541587811
 30
0.0
 11
217.0001157449987943
 21
355.7520769541587811
 31
0.0
1001
ACAD
1000
ASC_BOUNDS
1002
{
1070
    19
1002
}
  0
LINE
  5
4DF
  8
0
  6
CONTINUOUS
 62
     3
 10
263.0001157449988227
 20
355.7520769541587811
 30
0.0
 11
267.0001157449988227
 21
320.7520769541587811
 31
0.0
1001
ACAD
1000
ASC_BOUNDS
1002
{
1070
    19
1002
}
  0
LINE
  5
4E0
  8
0
  6
CONTINUOUS
 62
     3
 10
213.0001157449987943
 20
320.7520769541587811
 30
0.0
 11
213.0001157449987943
 21
317.7520769541588948
 31
0.0
  0
LINE
  5
4E1
  8
0
  6
CONTINUOUS
 62
     3
 10
213.0001157449987943
 20
317.7520769541588948
 30
0.0
 11
267.0001157449988227
 21
317.7520769541588948
 31
0.0
  0
LINE
  5
4E2
  8
0
  6
CONTINUOUS
 62
     3
 10
267.0001157449988227
 20
317.7520769541588948
 30
0.0
 11
267.0001157449988227
 21
320.7520769541587811
 31
0.0
  0
LINE
  5
4E3
  8
0
  6
CONTINUOUS
 62
     3
 10
267.0001157449988227
 20
320.7520769541587811
 30
0.0
 11
213.0001157449987943
 21
320.7520769541587811
 31
0.0
  0
LINE
  5
4E4
  8
0
  6
CONTINUOUS
 62
     3
 10
213.5001157449987943
 20
314.7520769541587811
 30
0.0
 11
213.5001157449987943
 21
316.7520769541587811
 31
0.0
  0
LINE
  5
4E5
  8
0
  6
CONTINUOUS
 62
     3
 10
213.5001157449987943
 20
316.7520769541587811
 30
0.0
 11
266.5001157449988227
 21
316.7520769541587811
 31
0.0
  0
LINE
  5
4E6
  8
0
  6
CONTINUOUS
 62
     3
 10
266.5001157449988227
 20
316.7520769541587811
 30
0.0
 11
266.5001157449988227
 21
314.7520769541587811
 31
0.0
  0
LINE
  5
4E7
  8
0
  6
CONTINUOUS
 62
     3
 10
214.5001157449987943
 20
316.7520769541587811
 30
0.0
 11
214.5001157449987943
 21
317.7520769541588948
 31
0.0
  0
LINE
  5
4E8
  8
0
  6
CONTINUOUS
 62
     3
 10
265.5001157449988227
 20
317.7520769541588948
 30
0.0
 11
265.5001157449988227
 21
316.7520769541587811
 31
0.0
  0
LINE
  5
4E9
  8
0
  6
CONTINUOUS
 62
     3
 10
212.7501157449987943
 20
306.2520769541587811
 30
0.0
 11
212.7501157449987943
 21
314.7520769541587811
 31
0.0
1001
ACAD
1000
ASC_BOUNDS
1002
{
1070
    19
1002
}
  0
LINE
  5
4EA
  8
0
  6
CONTINUOUS
 62
     3
 10
212.7501157449987943
 20
314.7520769541587811
 30
0.0
 11
267.2501157449988227
 21
314.7520769541587811
 31
0.0
1001
ACAD
1000
ASC_BOUNDS
1002
{
1070
    19
1002
}
  0
LINE
  5
4EB
  8
0
  6
CONTINUOUS
 62
     3
 10
267.2501157449988227
 20
314.7520769541587811
 30
0.0
 11
267.2501157449988227
 21
306.2520769541587811
 31
0.0
1001
ACAD
1000
ASC_BOUNDS
1002
{
1070
    19
1002
}
  0
LINE
  5
4EC
  8
0
  6
CONTINUOUS
 62
     3
 10
267.2501157449988227
 20
306.2520769541587811
 30
0.0
 11
266.7501157449988227
 21
305.7520769541587811
 31
0.0
1001
ACAD
1000
ASC_BOUNDS
1002
{
1070
    19
1002
}
  0
LINE
  5
4ED
  8
0
  6
CONTINUOUS
 62
     3
 10
266.7501157449988227
 20
305.7520769541587811
 30
0.0
 11
213.2501157449987943
 21
305.7520769541587811
 31
0.0
1001
ACAD
1000
ASC_BOUNDS
1002
{
1070
    19
1002
}
  0
LINE
  5
4EE
  8
0
  6
CONTINUOUS
 62
     3
 10
213.2501157449987943
 20
305.7520769541587811
 30
0.0
 11
212.7501157449987943
 21
306.2520769541587811
 31
0.0
1001
ACAD
1000
ASC_BOUNDS
1002
{
1070
    19
1002
}
  0
LINE
  5
4EF
  8
0
  6
CONTINUOUS
 62
     4
 10
239.000115744998709
 20
335.8530974685926935
 30
0.0
 11
239.000115744998709
 21
337.9236498294122271
 31
0.0
  0
LINE
  5
4F0
  8
0
  6
CONTINUOUS
 62
     4
 10
241.000115744998709
 20
337.9236498294122271
 30
0.0
 11
241.000115744998709
 21
335.8530974685926935
 31
0.0
  0
LINE
  5
4F1
  8
0
  6
CONTINUOUS
 62
     4
 10
239.000115744998709
 20
343.5805040789055056
 30
0.0
 11
239.000115744998709
 21
345.6510564397249254
 31
0.0
  0
LINE
  5
4F2
  8
0
  6
CONTINUOUS
 62
     4
 10
241.000115744998709
 20
345.6510564397249254
 30
0.0
 11
241.000115744998709
 21
343.5805040789055056
 31
0.0
  0
ARC
  5
4F3
  8
0
  6
CONTINUOUS
 62
     3
 10
251.500115744998709
 20
391.7520769541587811
 30
0.0
 40
2.0
 50
0.0
 51
90.0
1001
ACAD
1000
ASC_BOUNDS
1002
{
1070
    19
1002
}
  0
LINE
  5
4F4
  8
0
  6
CONTINUOUS
 62
     3
 10
251.500115744998709
 20
393.7520769541587811
 30
0.0
 11
228.500115744998709
 21
393.7520769541587811
 31
0.0
1001
ACAD
1000
ASC_BOUNDS
1002
{
1070
    19
1002
}
  0
ARC
  5
4F5
  8
0
  6
CONTINUOUS
 62
     3
 10
228.500115744998709
 20
391.7520769541587811
 30
0.0
 40
2.0
 50
90.0
 51
180.0
1001
ACAD
1000
ASC_BOUNDS
1002
{
1070
    19
1002
}
  0
LINE
  5
4F6
  8
0
  6
CONTINUOUS
 62
     3
 10
253.500115744998709
 20
374.7520769541587811
 30
0.0
 11
259.1456218470157182
 21
374.7520769541587811
 31
0.0
1001
ACAD
1000
ASC_BOUNDS
1002
{
1070
    19
1002
}
  0
ARC
  5
4F7
  8
0
  6
CONTINUOUS
 62
     3
 10
259.1456218470157182
 20
373.7520769541588948
 30
0.0
 40
1.0
 50
8.9726266148205394
 51
90.0
1001
ACAD
1000
ASC_BOUNDS
1002
{
1070
    19
1002
}
  0
LINE
  5
4F8
  8
0
  6
CONTINUOUS
 62
     3
 10
260.1333848123430812
 20
373.9080395276324111
 30
0.0
 11
263.0001157449988227
 21
355.7520769541587811
 31
0.0
1001
ACAD
1000
ASC_BOUNDS
1002
{
1070
    19
1002
}
  0
LINE
  5
4F9
  8
0
  6
CONTINUOUS
 62
     3
 10
263.0001157449988227
 20
355.7520769541587811
 30
0.0
 11
217.0001157449987943
 21
355.7520769541587811
 31
0.0
1001
ACAD
1000
ASC_BOUNDS
1002
{
1070
    19
1002
}
  0
LINE
  5
4FA
  8
0
  6
CONTINUOUS
 62
     3
 10
217.0001157449987943
 20
355.7520769541587811
 30
0.0
 11
219.8668466776508126
 21
373.9080395276324111
 31
0.0
1001
ACAD
1000
ASC_BOUNDS
1002
{
1070
    19
1002
}
  0
ARC
  5
4FB
  8
0
  6
CONTINUOUS
 62
     3
 10
220.8546096429818135
 20
373.7520769541588948
 30
0.0
 40
0.9999999999997262
 50
90.0
 51
171.027373385179402
1001
ACAD
1000
ASC_BOUNDS
1002
{
1070
    19
1002
}
  0
LINE
  5
4FC
  8
0
  6
CONTINUOUS
 62
     3
 10
220.8546096429818135
 20
374.7520769541587811
 30
0.0
 11
226.500115744998709
 21
374.7520769541587811
 31
0.0
1001
ACAD
1000
ASC_BOUNDS
1002
{
1070
    19
1002
}
  0
LINE
  5
4FD
  8
0
  6
CENTER2
 62
     4
 10
240.0001157450068945
 20
-0.0000120458389574
 30
0.0
 11
240.0001157450068945
 21
1085.7520769541590653
 31
0.0
  0
CIRCLE
  5
4FE
  8
0
  6
CONTINUOUS
 62
     4
 10
420.0001157449759717
 20
543.4520739547697303
 30
0.0
 40
7.5
  0
CIRCLE
  5
4FF
  8
0
  6
CONTINUOUS
 62
     4
 10
420.0001157449759717
 20
543.4520739547697303
 30
0.0
 40
9.0
  0
ENDBLK
  5
500
  8
0
 62
     7
  0
BLOCK
  8
0
 62
     7
  2
A$C76071F4B
 70
     0
 10
0.0
 20
0.0
 30
0.0
  3
A$C76071F4B
  1

  0
LINE
  5
594
  8
0
  6
HIDDEN2
 62
     4
 10
71.000011077059753
 20
64.999993486871972
 30
0.0
 11
71.000011077059753
 21
43.999993486871972
 31
0.0
  0
LINE
  5
595
  8
0
  6
HIDDEN2
 62
     4
 10
41.500011077059753
 20
72.499993486871972
 30
0.0
 11
54.5000110770597601
 21
72.499993486871972
 31
0.0
  0
LINE
  5
596
  8
0
  6
HIDDEN2
 62
     4
 10
54.5000110770597601
 20
36.499993486871972
 30
0.0
 11
41.500011077059753
 21
36.499993486871972
 31
0.0
  0
LINE
  5
597
  8
0
  6
HIDDEN2
 62
     4
 10
54.5000110770597601
 20
36.499993486871972
 30
0.0
 11
54.5000110770597601
 21
72.499993486871972
 31
0.0
  0
LINE
  5
598
  8
0
  6
HIDDEN2
 62
     4
 10
41.500011077059753
 20
36.499993486871972
 30
0.0
 11
41.500011077059753
 21
72.499993486871972
 31
0.0
  0
LINE
  5
599
  8
0
  6
HIDDEN2
 62
     4
 10
71.000011077059753
 20
63.7999934868712515
 30
0.0
 11
54.5000110770597601
 21
63.7999934868712515
 31
0.0
  0
LINE
  5
59A
  8
0
  6
HIDDEN2
 62
     4
 10
71.000011077059753
 20
64.999993486871972
 30
0.0
 11
54.5000110770597601
 21
64.999993486871972
 31
0.0
  0
LINE
  5
59B
  8
0
  6
HIDDEN2
 62
     4
 10
71.000011077059753
 20
45.1999934868708806
 30
0.0
 11
54.5000110770597601
 21
45.1999934868708806
 31
0.0
  0
LINE
  5
59C
  8
0
  6
HIDDEN2
 62
     4
 10
71.000011077059753
 20
43.999993486871972
 30
0.0
 11
54.5000110770602078
 21
43.999993486871972
 31
0.0
  0
LINE
  5
59D
  8
0
  6
HIDDEN2
 62
     4
 10
32.0000110770597601
 20
37.999993486871972
 30
0.0
 11
41.500011077059753
 21
37.999993486871972
 31
0.0
  0
LINE
  5
59E
  8
0
  6
HIDDEN2
 62
     4
 10
6.000011077059753
 20
42.7846189730116677
 30
0.0
 11
6.000011077059753
 21
34.999993486871972
 31
0.0
  0
LINE
  5
59F
  8
0
  6
HIDDEN2
 62
     4
 10
32.0000110770597601
 20
42.7846189730116677
 30
0.0
 11
32.0000110770597601
 21
34.999993486871972
 31
0.0
  0
LINE
  5
5A0
  8
0
  6
HIDDEN2
 62
     4
 10
32.500011077059753
 20
54.499993486871972
 30
0.0
 11
32.500011077059753
 21
73.999993486871972
 31
0.0
  0
LINE
  5
5A1
  8
0
  6
HIDDEN2
 62
     4
 10
29.5000110770597601
 20
73.999993486871972
 30
0.0
 11
29.5000110770597601
 21
93.999993486871972
 31
0.0
  0
LINE
  5
5A2
  8
0
  6
HIDDEN2
 62
     4
 10
28.3000110770599385
 20
73.999993486871972
 30
0.0
 11
28.3000110770599385
 21
93.999993486871972
 31
0.0
  0
LINE
  5
5A3
  8
0
  6
HIDDEN2
 62
     4
 10
5.500011077059753
 20
73.999993486871972
 30
0.0
 11
32.500011077059753
 21
73.999993486871972
 31
0.0
  0
LINE
  5
5A4
  8
0
  6
HIDDEN2
 62
     4
 10
5.500011077059753
 20
73.999993486871972
 30
0.0
 11
5.500011077059753
 21
54.499993486871972
 31
0.0
  0
LINE
  5
5A5
  8
0
  6
HIDDEN2
 62
     4
 10
8.500011077059753
 20
93.999993486871972
 30
0.0
 11
29.5000110770597601
 21
93.999993486871972
 31
0.0
  0
LINE
  5
5A6
  8
0
  6
HIDDEN2
 62
     4
 10
8.500011077059753
 20
93.999993486871972
 30
0.0
 11
8.500011077059753
 21
73.999993486871972
 31
0.0
  0
LINE
  5
5A7
  8
0
  6
HIDDEN2
 62
     4
 10
9.7000110770600259
 20
93.999993486871972
 30
0.0
 11
9.7000110770600259
 21
73.999993486871972
 31
0.0
  0
LINE
  5
5A8
  8
0
  6
HIDDEN2
 62
     4
 10
32.500011077059753
 20
70.999993486871972
 30
0.0
 11
41.500011077059753
 21
70.999993486871972
 31
0.0
  0
LINE
  5
5A9
  8
0
  6
HIDDEN2
 62
     4
 10
29.4550110770601385
 20
15.9999934868719702
 30
0.0
 11
28.4550110770601314
 21
14.9999934868719702
 31
0.0
  0
LINE
  5
5AA
  8
0
  6
HIDDEN2
 62
     4
 10
28.4550110770601314
 20
14.9999934868719702
 30
0.0
 11
9.5000110770602078
 21
14.9999934868719702
 31
0.0
  0
LINE
  5
5AB
  8
0
  6
HIDDEN2
 62
     4
 10
9.5000110770602078
 20
14.9999934868719702
 30
0.0
 11
8.5000110770602078
 21
15.9999934868719702
 31
0.0
  0
LINE
  5
5AC
  8
0
  6
HIDDEN2
 62
     4
 10
32.4775110770597166
 20
34.999993486871972
 30
0.0
 11
5.4775110770597157
 21
34.999993486871972
 31
0.0
  0
LINE
  5
5AD
  8
0
  6
HIDDEN2
 62
     4
 10
3.000011077059753
 20
31.9999934868719684
 30
0.0
 11
3.000011077059753
 21
32.999993486871972
 31
0.0
  0
LINE
  5
5AE
  8
0
  6
HIDDEN2
 62
     4
 10
35.000011077059753
 20
31.9999934868719684
 30
0.0
 11
35.000011077059753
 21
32.999993486871972
 31
0.0
  0
LINE
  5
5AF
  8
0
  6
HIDDEN2
 62
     4
 10
29.4550110770596802
 20
26.9999934868719684
 30
0.0
 11
29.4550110770601385
 21
15.9999934868719702
 31
0.0
  0
LINE
  5
5B0
  8
0
  6
HIDDEN2
 62
     4
 10
28.2930110770603314
 20
26.9999934868719684
 30
0.0
 11
28.2930110770603314
 21
14.9999934868719702
 31
0.0
  0
LINE
  5
5B1
  8
0
  6
HIDDEN2
 62
     4
 10
9.6620110770600132
 20
26.9999934868719684
 30
0.0
 11
9.6620110770600132
 21
14.9999934868719702
 31
0.0
  0
LINE
  5
5B2
  8
0
  6
HIDDEN2
 62
     4
 10
8.5000110770602078
 20
26.9999934868719684
 30
0.0
 11
8.5000110770602078
 21
15.9999934868719702
 31
0.0
  0
LINE
  5
5B3
  8
0
  6
HIDDEN2
 62
     4
 10
7.000011077059753
 20
31.9999934868719684
 30
0.0
 11
7.000011077059753
 21
26.9999934868719684
 31
0.0
  0
LINE
  5
5B4
  8
0
  6
HIDDEN2
 62
     4
 10
31.0000110770597495
 20
31.9999934868719684
 30
0.0
 11
31.0000110770597495
 21
26.9999934868719684
 31
0.0
  0
LINE
  5
5B5
  8
0
  6
HIDDEN2
 62
     4
 10
7.000011077059753
 20
26.9999934868719684
 30
0.0
 11
31.0000110770597495
 21
26.9999934868719684
 31
0.0
  0
LINE
  5
5B6
  8
0
  6
HIDDEN2
 62
     4
 10
3.000011077059753
 20
31.9999934868719684
 30
0.0
 11
35.000011077059753
 21
31.9999934868719684
 31
0.0
  0
LINE
  5
5B7
  8
0
  6
HIDDEN2
 62
     4
 10
0.000011077059753
 20
32.999993486871972
 30
0.0
 11
0.000011077059753
 21
34.999993486871972
 31
0.0
  0
LINE
  5
5B8
  8
0
  6
HIDDEN2
 62
     4
 10
0.000011077059753
 20
32.999993486871972
 30
0.0
 11
38.0000110770597601
 21
32.999993486871972
 31
0.0
  0
LINE
  5
5B9
  8
0
  6
HIDDEN2
 62
     4
 10
72.000011077059753
 20
-0.000006513128028
 30
0.0
 11
74.000011077059753
 21
-0.000006513128028
 31
0.0
  0
LINE
  5
5BA
  8
0
  6
HIDDEN2
 62
     4
 10
74.000011077059753
 20
-0.000006513128028
 30
0.0
 11
74.000011077059753
 21
34.999993486871972
 31
0.0
  0
LINE
  5
5BB
  8
0
  6
HIDDEN2
 62
     4
 10
0.000011077059753
 20
34.999993486871972
 30
0.0
 11
74.000011077059753
 21
34.999993486871972
 31
0.0
  0
LINE
  5
5BC
  8
0
  6
HIDDEN2
 62
     4
 10
72.000011077059753
 20
-0.000006513128028
 30
0.0
 11
72.000011077059753
 21
32.999993486871972
 31
0.0
  0
LINE
  5
5BD
  8
0
  6
HIDDEN2
 62
     4
 10
72.000011077059753
 20
32.999993486871972
 30
0.0
 11
0.000011077059753
 21
32.999993486871972
 31
0.0
  0
LINE
  5
5BE
  8
0
  6
HIDDEN2
 62
     4
 10
72.000011077059753
 20
29.9999934868719684
 30
0.0
 11
74.000011077059753
 21
29.9999934868719684
 31
0.0
  0
ARC
  5
5BF
  8
0
  6
HIDDEN2
 62
     4
 10
19.0000110770597495
 20
54.499993486871972
 30
0.0
 40
13.4999999999999805
 50
180.0
 51
0.0
  0
ARC
  5
5C0
  8
0
  6
HIDDEN2
 62
     4
 10
19.0000110770597495
 20
54.499993486871972
 30
0.0
 40
18.0
 50
316.2382573073621188
 51
41.4096221092795105
  0
ARC
  5
5C1
  8
0
  6
HIDDEN2
 62
     4
 10
19.0000110770597495
 20
54.499993486871972
 30
0.0
 40
18.0
 50
138.5903778907205037
 51
223.7617426926379096
  0
ARC
  5
5C2
  8
0
  6
HIDDEN2
 62
     4
 10
19.0000110770597495
 20
54.499993486871972
 30
0.0
 40
17.5
 50
317.9753724206765924
 51
39.5176527971798421
  0
ARC
  5
5C3
  8
0
  6
HIDDEN2
 62
     4
 10
19.0000110770597495
 20
54.499993486871972
 30
0.0
 40
17.5
 50
140.4823472028201081
 51
222.0246275793234076
  0
ENDBLK
  5
5C4
  8
0
 62
     7
  0
BLOCK
  8
0
 62
     7
  2
A$C6BE53629
 70
     0
 10
0.0
 20
0.0
 30
0.0
  3
A$C6BE53629
  1

  0
INSERT
  5
5C9
  8
0
 62
     4
  2
A$C76071F4B
 10
-0.0000551117518626
 20
181.0000232136663101
 30
0.0
  0
LINE
  5
5CA
  8
0
  6
HIDDEN2
 62
     4
 10
73.9999559653078904
 20
216.0000167005381968
 30
0.0
 11
73.9999559653078904
 21
0.0000159445262398
 31
0.0
  0
LINE
  5
5CB
  8
0
  6
HIDDEN2
 62
     4
 10
103.9999559653079046
 20
216.0000167005381968
 30
0.0
 11
103.9999559653079046
 21
0.000015992549379
 31
0.0
  0
LINE
  5
5CC
  8
0
 62
     4
 10
73.9999559653078904
 20
216.0000167005381968
 30
0.0
 11
103.9999559653079046
 21
216.0000167005381968
 31
0.0
  0
ENDBLK
  5
5CD
  8
0
 62
     7
  0
BLOCK
  8
0
 62
     4
  2
A$C18BD6BBE
 70
     0
 10
0.0
 20
0.0
 30
0.0
  3
A$C18BD6BBE
  1

  0
LINE
  5
5D2
  8
0
  6
HIDDEN2
 62
     4
 10
69.1122490365523845
 20
125.9997579479823031
 30
0.0
 11
69.1122490605921485
 21
155.9997579479822889
 31
0.0
  0
LINE
  5
5D3
  8
0
  6
HIDDEN2
 62
     4
 10
69.1122490365523845
 20
125.9997579479823031
 30
0.0
 11
139.1122490585840126
 21
125.9997579479823031
 31
0.0
  0
LINE
  5
5D4
  8
0
  6
HIDDEN2
 62
     4
 10
69.1122490605921485
 20
155.9997579479822889
 30
0.0
 11
139.1122490858251979
 21
155.9997579479822889
 31
0.0
  0
LINE
  5
5D5
  8
0
  6
HIDDEN2
 62
     4
 10
114.5672490722208039
 20
141.9997579479822889
 30
0.0
 11
113.5672490722209034
 21
140.9997579479822889
 31
0.0
  0
LINE
  5
5D6
  8
0
  6
HIDDEN2
 62
     4
 10
113.5672490722209034
 20
140.9997579479822889
 30
0.0
 11
94.6122490722045768
 21
140.9997579479822889
 31
0.0
  0
LINE
  5
5D7
  8
0
  6
HIDDEN2
 62
     4
 10
94.6122490722045768
 20
140.9997579479822889
 30
0.0
 11
93.6122490722045768
 21
141.9997579479822889
 31
0.0
  0
LINE
  5
5D8
  8
0
  6
HIDDEN2
 62
     4
 10
118.6122490722046052
 20
218.9997579479822889
 30
0.0
 11
119.6122490722046052
 21
219.9997579479822889
 31
0.0
  0
LINE
  5
5D9
  8
0
  6
HIDDEN2
 62
     4
 10
119.6122490722046052
 20
219.9997579479822889
 30
0.0
 11
138.5672490722209034
 21
219.9997579479822889
 31
0.0
  0
LINE
  5
5DA
  8
0
  6
HIDDEN2
 62
     4
 10
138.5672490722209034
 20
219.9997579479822889
 30
0.0
 11
139.5672490722207897
 21
218.9997579479822889
 31
0.0
  0
LINE
  5
5DB
  8
0
  6
HIDDEN2
 62
     4
 10
118.6122490722046052
 20
218.9997579479822889
 30
0.0
 11
118.6122490722046052
 21
199.9997579479822889
 31
0.0
  0
LINE
  5
5DC
  8
0
  6
HIDDEN2
 62
     4
 10
119.7742490722156958
 20
219.9997579479822889
 30
0.0
 11
119.7742490722156958
 21
199.9997579479822889
 31
0.0
  0
LINE
  5
5DD
  8
0
  6
HIDDEN2
 62
     4
 10
138.4052490722096991
 20
219.9997579479822889
 30
0.0
 11
138.4052490722096991
 21
199.9997579479822889
 31
0.0
  0
LINE
  5
5DE
  8
0
  6
HIDDEN2
 62
     4
 10
139.5672490722207897
 20
218.9997579479822889
 30
0.0
 11
139.5672490722207897
 21
199.9997579479822889
 31
0.0
  0
LINE
  5
5DF
  8
0
  6
HIDDEN2
 62
     4
 10
142.5897490722126975
 20
198.9997579479822889
 30
0.0
 11
141.5897490722126975
 21
199.9997579479822889
 31
0.0
  0
LINE
  5
5E0
  8
0
  6
HIDDEN2
 62
     4
 10
116.5897490722126975
 20
199.9997579479822889
 30
0.0
 11
141.5897490722126975
 21
199.9997579479822889
 31
0.0
  0
LINE
  5
5E1
  8
0
  6
HIDDEN2
 62
     4
 10
115.5897490722126975
 20
198.9997579479822889
 30
0.0
 11
116.5897490722126975
 21
199.9997579479822889
 31
0.0
  0
LINE
  5
5E2
  8
0
  6
HIDDEN2
 62
     4
 10
90.5897490722127259
 20
161.9997579479822889
 30
0.0
 11
90.5897490722127259
 21
160.9997579479822889
 31
0.0
  0
LINE
  5
5E3
  8
0
  6
HIDDEN2
 62
     4
 10
117.5897490722126975
 20
161.9997579479822889
 30
0.0
 11
117.5897490722126975
 21
160.9997579479822889
 31
0.0
  0
LINE
  5
5E4
  8
0
  6
HIDDEN2
 62
     4
 10
142.5897490722126975
 20
198.4997579479822889
 30
0.0
 11
142.5897490722126975
 21
198.9997579479822889
 31
0.0
  0
LINE
  5
5E5
  8
0
  6
HIDDEN2
 62
     4
 10
143.0897490722126975
 20
187.9997579479822889
 30
0.0
 11
143.0897490722126975
 21
197.9997579479822889
 31
0.0
  0
LINE
  5
5E6
  8
0
  6
HIDDEN2
 62
     4
 10
124.5897490722126975
 20
166.9997579479822889
 30
0.0
 11
124.5897490722126975
 21
168.0560872728237882
 31
0.0
  0
LINE
  5
5E7
  8
0
  6
HIDDEN2
 62
     4
 10
119.0897490722126975
 20
164.9997579479822889
 30
0.0
 11
122.5897490722126975
 21
164.9997579479822889
 31
0.0
  0
LINE
  5
5E8
  8
0
  6
HIDDEN2
 62
     4
 10
118.5897490722126975
 20
164.4997579479822889
 30
0.0
 11
118.5897490722126975
 21
162.9997579479822889
 31
0.0
  0
LINE
  5
5E9
  8
0
  6
HIDDEN2
 62
     4
 10
42.0897490722127188
 20
162.9997579479822889
 30
0.0
 11
42.0897490722127188
 21
197.9997579479822889
 31
0.0
  0
LINE
  5
5EA
  8
0
  6
HIDDEN2
 62
     4
 10
54.0897490722127188
 20
162.9997579479822889
 30
0.0
 11
54.0897490722127188
 21
197.9997579479822889
 31
0.0
  0
LINE
  5
5EB
  8
0
  6
HIDDEN2
 62
     4
 10
61.089749072212733
 20
162.9997579479822889
 30
0.0
 11
61.089749072212733
 21
197.9997579479822889
 31
0.0
  0
LINE
  5
5EC
  8
0
  6
HIDDEN2
 62
     4
 10
39.089749072212733
 20
162.9997579479822889
 30
0.0
 11
118.5897490722126975
 21
162.9997579479822889
 31
0.0
  0
LINE
  5
5ED
  8
0
  6
HIDDEN2
 62
     4
 10
37.089749072212733
 20
165.9997579479822889
 30
0.0
 11
2.3051393813802861
 21
165.9997579479822889
 31
0.0
  0
LINE
  5
5EE
  8
0
  6
HIDDEN2
 62
     4
 10
13.1814945031073893
 20
197.9997579479822889
 30
0.0
 11
143.0897490722126975
 21
197.9997579479822889
 31
0.0
  0
LINE
  5
5EF
  8
0
  6
HIDDEN2
 62
     4
 10
10.2837170242564699
 20
195.7762150833150088
 30
0.0
 11
0.1016477118537296
 21
157.7762150833150088
 31
0.0
  0
LINE
  5
5F0
  8
0
  6
HIDDEN2
 62
     4
 10
39.089749072212733
 20
156.9997579479822889
 30
0.0
 11
39.089749072212733
 21
163.9997579479822889
 31
0.0
  0
LINE
  5
5F1
  8
0
  6
HIDDEN2
 62
     4
 10
36.089749072212733
 20
153.9997579479822889
 30
0.0
 11
2.9994251907337448
 21
153.9997579479822889
 31
0.0
  0
LINE
  5
5F2
  8
0
  6
HIDDEN2
 62
     4
 10
88.1122490722045768
 20
157.9997579479822889
 30
0.0
 11
88.1122490722045768
 21
158.9997579479822889
 31
0.0
  0
LINE
  5
5F3
  8
0
  6
HIDDEN2
 62
     4
 10
120.1122490722045058
 20
157.9997579479822889
 30
0.0
 11
120.1122490722045058
 21
158.9997579479822889
 31
0.0
  0
LINE
  5
5F4
  8
0
  6
HIDDEN2
 62
     4
 10
114.5672490722208039
 20
152.9997579479822889
 30
0.0
 11
114.5672490722208039
 21
141.9997579479822889
 31
0.0
  0
LINE
  5
5F5
  8
0
  6
HIDDEN2
 62
     4
 10
113.4052490722096991
 20
152.9997579479822889
 30
0.0
 11
113.4052490722096991
 21
140.9997579479822889
 31
0.0
  0
LINE
  5
5F6
  8
0
  6
HIDDEN2
 62
     4
 10
94.7742490722157527
 20
152.9997579479822889
 30
0.0
 11
94.7742490722157527
 21
140.9997579479822889
 31
0.0
  0
LINE
  5
5F7
  8
0
  6
HIDDEN2
 62
     4
 10
93.6122490722045768
 20
152.9997579479822889
 30
0.0
 11
93.6122490722045768
 21
141.9997579479822889
 31
0.0
  0
LINE
  5
5F8
  8
0
  6
HIDDEN2
 62
     4
 10
92.1122490722045768
 20
157.9997579479822889
 30
0.0
 11
92.1122490722045768
 21
152.9997579479822889
 31
0.0
  0
LINE
  5
5F9
  8
0
  6
HIDDEN2
 62
     4
 10
116.1122490722046052
 20
157.9997579479822889
 30
0.0
 11
116.1122490722046052
 21
152.9997579479822889
 31
0.0
  0
LINE
  5
5FA
  8
0
  6
HIDDEN2
 62
     4
 10
92.1122490722045768
 20
152.9997579479822889
 30
0.0
 11
116.1122490722046052
 21
152.9997579479822889
 31
0.0
  0
LINE
  5
5FB
  8
0
  6
HIDDEN2
 62
     4
 10
88.1122490722045768
 20
157.9997579479822889
 30
0.0
 11
120.1122490722045058
 21
157.9997579479822889
 31
0.0
  0
LINE
  5
5FC
  8
0
  6
HIDDEN2
 62
     4
 10
85.1122490722045768
 20
155.9997579479822889
 30
0.0
 11
85.1122490722045768
 21
160.9997579479822889
 31
0.0
  0
LINE
  5
5FD
  8
0
  6
HIDDEN2
 62
     4
 10
123.1122490722045058
 20
155.9997579479822889
 30
0.0
 11
123.1122490722045058
 21
160.9997579479822889
 31
0.0
  0
LINE
  5
5FE
  8
0
  6
HIDDEN2
 62
     4
 10
69.1122490722045768
 20
127.9997579479823031
 30
0.0
 11
69.1122490722045768
 21
153.9997579479822889
 31
0.0
  0
LINE
  5
5FF
  8
0
  6
HIDDEN2
 62
     4
 10
139.1122490722046052
 20
153.9997579479822889
 30
0.0
 11
139.1122490722046052
 21
127.9997579479823031
 31
0.0
  0
LINE
  5
600
  8
0
  6
HIDDEN2
 62
     4
 10
85.1122490722045768
 20
160.9997579479822889
 30
0.0
 11
123.1122490722045058
 21
160.9997579479822889
 31
0.0
  0
LINE
  5
601
  8
0
  6
HIDDEN2
 62
     4
 10
85.1122490722045768
 20
158.9997579479822889
 30
0.0
 11
123.1122490722045058
 21
158.9997579479822889
 31
0.0
  0
LINE
  5
602
  8
0
  6
HIDDEN2
 62
     4
 10
139.1122489441185905
 20
-0.0000140519696288
 30
0.0
 11
139.1122490858251979
 21
155.9997579479822889
 31
0.0
  0
LINE
  5
603
  8
0
  6
HIDDEN2
 62
     4
 10
109.1122489441476944
 20
-0.0000140519696288
 30
0.0
 11
109.1122490585839984
 21
125.9997579479823031
 31
0.0
  0
CIRCLE
  5
604
  8
0
  6
HIDDEN2
 62
     4
 10
130.6122490722046052
 20
140.9997579479822889
 30
0.0
 40
1.649999999999999
  0
CIRCLE
  5
605
  8
0
  6
HIDDEN2
 62
     4
 10
77.6122490485722665
 20
140.9997579479822889
 30
0.0
 40
1.649999999999999
  0
CIRCLE
  5
606
  8
0
  6
HIDDEN2
 62
     4
 10
77.6122490722045768
 20
140.9997579479822889
 30
0.0
 40
2.25
  0
CIRCLE
  5
607
  8
0
  6
HIDDEN2
 62
     4
 10
130.6122490722046052
 20
140.9997579479822889
 30
0.0
 40
2.25
  0
ARC
  5
608
  8
0
  6
HIDDEN2
 62
     4
 10
114.5897490722126975
 20
198.9997579479822889
 30
0.0
 40
1.0
 50
270.0
 51
0.0
  0
ARC
  5
609
  8
0
  6
HIDDEN2
 62
     4
 10
118.5897490722126975
 20
161.9997579479822889
 30
0.0
 40
1.0
 50
90.0
 51
180.0
  0
ARC
  5
60A
  8
0
  6
HIDDEN2
 62
     4
 10
89.5897490722127259
 20
161.9997579479822889
 30
0.0
 40
1.0
 50
0.0
 51
90.0
  0
ARC
  5
60B
  8
0
  6
HIDDEN2
 62
     4
 10
143.0897490722126975
 20
198.4997579479822889
 30
0.0
 40
0.5
 50
180.0
 51
270.0
  0
ARC
  5
60C
  8
0
  6
HIDDEN2
 62
     4
 10
123.0897490722126975
 20
187.9997579479822889
 30
0.0
 40
20.0
 50
274.3012223054399215
 51
0.0
  0
ARC
  5
60D
  8
0
  6
HIDDEN2
 62
     4
 10
122.5897490722126975
 20
166.9997579479822889
 30
0.0
 40
2.0
 50
270.0
 51
0.0
  0
ARC
  5
60E
  8
0
  6
HIDDEN2
 62
     4
 10
119.0897490722126975
 20
164.4997579479822889
 30
0.0
 40
0.5
 50
90.0
 51
180.0
  0
ARC
  5
60F
  8
0
  6
HIDDEN2
 62
     4
 10
37.089749072212733
 20
163.9997579479822889
 30
0.0
 40
2.0
 50
0.0
 51
90.0
  0
ARC
  5
610
  8
0
  6
HIDDEN2
 62
     4
 10
2.9994251907337448
 20
156.9997579479822889
 30
0.0
 40
3.0
 50
165.000000000528587
 51
270.0
  0
ARC
  5
611
  8
0
  6
HIDDEN2
 62
     4
 10
13.1814945031073893
 20
194.9997579479822889
 30
0.0
 40
3.0
 50
90.0
 51
165.000000000528587
  0
ARC
  5
612
  8
0
  6
HIDDEN2
 62
     4
 10
36.089749072212733
 20
156.9997579479822889
 30
0.0
 40
3.0
 50
270.0
 51
0.0
  0
ARC
  5
613
  8
0
  6
HIDDEN2
 62
     4
 10
87.0897490722127259
 20
180.4997579479822889
 30
0.0
 40
18.0
 50
76.463797262241755
 51
103.5362027377582024
  0
ARC
  5
614
  8
0
  6
HIDDEN2
 62
     4
 10
87.0897490722127259
 20
180.4997579479822889
 30
0.0
 40
18.0
 50
256.4637972622417124
 51
280.0217399539417897
  0
ARC
  5
615
  8
0
  6
HIDDEN2
 62
     4
 10
71.1122490722045768
 20
153.9997579479822889
 30
0.0
 40
2.0
 50
90.0
 51
180.0
  0
ARC
  5
616
  8
0
  6
HIDDEN2
 62
     4
 10
71.1122490722045768
 20
127.9997579479823031
 30
0.0
 40
2.0
 50
180.0
 51
270.0
  0
ARC
  5
617
  8
0
  6
HIDDEN2
 62
     4
 10
137.1122490722046052
 20
127.9997579479823031
 30
0.0
 40
2.0
 50
270.0
 51
0.0
  0
ARC
  5
618
  8
0
  6
HIDDEN2
 62
     4
 10
137.1122490722046052
 20
153.9997579479822889
 30
0.0
 40
2.0
 50
0.0
 51
90.0
  0
ENDBLK
  5
619
  8
0
 62
     4
  0
BLOCK
  8
0
 62
     7
  2
*D86
 70
     1
 10
0.0
 20
0.0
 30
0.0
  3
*D86
  1

  0
LINE
  5
1F0A
  8
0
 62
     2
 10
4621.5162205322985756
 20
2157.5524133098078892
 30
0.0
 11
4621.5162205322985756
 21
2157.5524203627142015
 31
0.0
  0
LINE
  5
1F0B
  8
0
 62
     2
 10
4386.516194210445974
 20
2342.2528020206950714
 30
0.0
 11
4386.516194210445974
 21
2117.5524203627142015
 31
0.0
  0
LINE
  5
1F0C
  8
0
 62
     2
 10
4581.5162205322985756
 20
2137.5524203627142015
 30
0.0
 11
4426.516194210445974
 21
2137.5524203627142015
 31
0.0
  0
INSERT
  5
1F0D
  8
0
 62
     2
  2
YA
 10
4621.5162205322985756
 20
2137.5524203627142015
 30
0.0
 41
40.0
 42
40.0
 43
40.0
  0
INSERT
  5
1F0E
  8
0
 62
     2
  2
YA
 10
4386.516194210445974
 20
2137.5524203627142015
 30
0.0
 41
40.0
 42
40.0
 43
40.0
 50
180.0
  0
INSERT
  5
1F0F
  8
0
 62
     7
  2
*U143
 10
0.0
 20
0.0
 30
0.0
  0
POINT
  5
1F10
  8
DEFPOINTS
 62
     0
 10
4621.5162205322985756
 20
2137.5524133098078892
 30
0.0
  0
POINT
  5
1F11
  8
DEFPOINTS
 62
     0
 10
4386.516194210445974
 20
2362.2528020206959809
 30
0.0
  0
POINT
  5
1F12
  8
DEFPOINTS
 62
     0
 10
4386.516194210445974
 20
2137.5524203627142015
 30
0.0
  0
ENDBLK
  5
19AC
  8
0
 62
     7
  0
BLOCK
  8
0
 62
     7
  2
*D87
 70
     1
 10
0.0
 20
0.0
 30
0.0
  3
*D87
  1

  0
LINE
  5
1E99
  8
0
  6
CONTINUOUS
 62
     2
 10
1596.9266948617910202
 20
3869.914364868715893
 30
0.0
 11
1572.1337916443760605
 21
4124.9512029084926326
 31
0.0
  0
INSERT
  5
1E9A
  8
0
 62
     7
  2
*U130
 10
0.0
 20
0.0
 30
0.0
  0
INSERT
  5
1E9B
  8
0
  6
CONTINUOUS
 62
     2
  2
YA
 10
1568.2635153072149024
 20
4164.7635246327281493
 30
0.0
 41
40.0
 42
40.0
 43
40.0
 50
95.5524491617778722
  0
POINT
  5
1E9C
  8
DEFPOINTS
  6
CONTINUOUS
 62
     0
 10
1568.2635153072149024
 20
4164.7635246327281493
 30
0.0
  0
POINT
  5
1E9D
  8
DEFPOINTS
  6
CONTINUOUS
 62
     0
 10
1596.9266948617910202
 20
3869.914364868715893
 30
0.0
  0
ENDBLK
  5
1AC2
  8
0
 62
     7
  0
BLOCK
  8
0
 62
     7
  2
*D88
 70
     1
 10
0.0
 20
0.0
 30
0.0
  3
*D88
  1

  0
LINE
  5
1E9E
  8
0
  6
CONTINUOUS
 62
     2
 10
3961.5165262104710564
 20
1067.9381950653039439
 30
0.0
 11
3961.5165262104710564
 21
618.4985626445850357
 31
0.0
  0
LINE
  5
1E9F
  8
0
  6
CONTINUOUS
 62
     2
 10
4801.5165262104710564
 20
1067.9381950653039439
 30
0.0
 11
4801.5165262104710564
 21
618.4985626445850357
 31
0.0
  0
LINE
  5
1EA0
  8
0
  6
CONTINUOUS
 62
     2
 10
4001.5165262104710564
 20
638.4985626445850357
 30
0.0
 11
4761.5165262104710564
 21
638.4985626445850357
 31
0.0
  0
INSERT
  5
1EA1
  8
0
  6
CONTINUOUS
 62
     2
  2
YA
 10
3961.5165262104710564
 20
638.4985626445850357
 30
0.0
 41
40.0
 42
40.0
 43
40.0
 50
180.0
  0
INSERT
  5
1EA2
  8
0
  6
CONTINUOUS
 62
     2
  2
YA
 10
4801.5165262104710564
 20
638.4985626445850357
 30
0.0
 41
40.0
 42
40.0
 43
40.0
  0
INSERT
  5
1EA3
  8
0
 62
     7
  2
*U131
 10
0.0
 20
0.0
 30
0.0
  0
POINT
  5
1EA4
  8
DEFPOINTS
  6
CONTINUOUS
 62
     0
 10
3961.5165262104710564
 20
1087.9381950653039439
 30
0.0
  0
POINT
  5
1EA5
  8
DEFPOINTS
  6
CONTINUOUS
 62
     0
 10
4801.5165262104710564
 20
1087.9381950653039439
 30
0.0
  0
POINT
  5
1EA6
  8
DEFPOINTS
  6
CONTINUOUS
 62
     0
 10
4801.5165262104710564
 20
638.4985626445850357
 30
0.0
  0
ENDBLK
  5
1ACA
  8
0
 62
     7
  0
BLOCK
  8
0
 62
     7
  2
*D89
 70
     1
 10
0.0
 20
0.0
 30
0.0
  3
*D89
  1

  0
LINE
  5
1EA7
  8
0
  6
CONTINUOUS
 62
     2
 10
4161.5165262104710564
 20
1095.2527918371490614
 30
0.0
 11
4161.5165262104710564
 21
768.4985626445850357
 31
0.0
  0
LINE
  5
1EA8
  8
0
  6
CONTINUOUS
 62
     2
 10
4801.5165262104710564
 20
1095.2527918371490614
 30
0.0
 11
4801.5165262104710564
 21
768.4985626445850357
 31
0.0
  0
LINE
  5
1EA9
  8
0
  6
CONTINUOUS
 62
     2
 10
4201.5165262104710564
 20
788.4985626445850357
 30
0.0
 11
4761.5165262104710564
 21
788.4985626445850357
 31
0.0
  0
INSERT
  5
1EAA
  8
0
  6
CONTINUOUS
 62
     2
  2
YA
 10
4161.5165262104710564
 20
788.4985626445850357
 30
0.0
 41
40.0
 42
40.0
 43
40.0
 50
180.0
  0
INSERT
  5
1EAB
  8
0
  6
CONTINUOUS
 62
     2
  2
YA
 10
4801.5165262104710564
 20
788.4985626445850357
 30
0.0
 41
40.0
 42
40.0
 43
40.0
  0
INSERT
  5
1EAC
  8
0
 62
     7
  2
*U132
 10
0.0
 20
0.0
 30
0.0
  0
POINT
  5
1EAD
  8
DEFPOINTS
  6
CONTINUOUS
 62
     0
 10
4161.5165262104710564
 20
1115.2527918371490614
 30
0.0
  0
POINT
  5
1EAE
  8
DEFPOINTS
  6
CONTINUOUS
 62
     0
 10
4801.5165262104710564
 20
1115.2527918371490614
 30
0.0
  0
POINT
  5
1EAF
  8
DEFPOINTS
  6
CONTINUOUS
 62
     0
 10
4801.5165262104710564
 20
788.4985626445850357
 30
0.0
  0
ENDBLK
  5
1AD6
  8
0
 62
     7
  0
BLOCK
  8
0
 62
     7
  2
*D90
 70
     1
 10
0.0
 20
0.0
 30
0.0
  3
*D90
  1

  0
LINE
  5
1EB0
  8
0
  6
CONTINUOUS
 62
     2
 10
4141.5165262104719659
 20
1115.2527918371490614
 30
0.0
 11
3711.5165262114260258
 21
1115.2527918371490614
 31
0.0
  0
LINE
  5
1EB1
  8
0
  6
CONTINUOUS
 62
     2
 10
3951.5165202104271884
 20
1985.2390388371429708
 30
0.0
 11
3711.5165262114260258
 21
1985.2390388371429708
 31
0.0
  0
LINE
  5
1EB2
  8
0
  6
CONTINUOUS
 62
     2
 10
3731.5165262114260258
 20
1155.2527918371490614
 30
0.0
 11
3731.5165262114260258
 21
1945.2390388371429708
 31
0.0
  0
INSERT
  5
1EB3
  8
0
  6
CONTINUOUS
 62
     2
  2
YA
 10
3731.5165262114260258
 20
1115.2527918371490614
 30
0.0
 41
40.0
 42
40.0
 43
40.0
 50
270.0
  0
INSERT
  5
1EB4
  8
0
  6
CONTINUOUS
 62
     2
  2
YA
 10
3731.5165262114260258
 20
1985.2390388371429708
 30
0.0
 41
40.0
 42
40.0
 43
40.0
 50
90.0
  0
INSERT
  5
1EB5
  8
0
 62
     7
  2
*U133
 10
0.0
 20
0.0
 30
0.0
  0
POINT
  5
1EB6
  8
DEFPOINTS
  6
CONTINUOUS
 62
     0
 10
4161.5165262104728754
 20
1115.2527918371490614
 30
0.0
  0
POINT
  5
1EB7
  8
DEFPOINTS
  6
CONTINUOUS
 62
     0
 10
3971.5165202104271884
 20
1985.2390388371429708
 30
0.0
  0
POINT
  5
1EB8
  8
DEFPOINTS
  6
CONTINUOUS
 62
     0
 10
3731.5165262114260258
 20
1985.2390388371429708
 30
0.0
  0
ENDBLK
  5
1AE2
  8
0
 62
     7
  0
BLOCK
  8
0
 62
     7
  2
*D91
 70
     1
 10
0.0
 20
0.0
 30
0.0
  3
*D91
  1

  0
LINE
  5
1EB9
  8
0
  6
CONTINUOUS
 62
     2
 10
4339.7661942104468835
 20
2365.2528020206959809
 30
0.0
 11
3561.5165262114260258
 21
2365.2528020206959809
 31
0.0
  0
LINE
  5
1EBA
  8
0
  6
CONTINUOUS
 62
     2
 10
4141.5165262104719659
 20
1115.2527918371490614
 30
0.0
 11
3561.5165262114260258
 21
1115.2527918371490614
 31
0.0
  0
LINE
  5
1EBB
  8
0
  6
CONTINUOUS
 62
     2
 10
3581.5165262114269353
 20
2325.2528020206959809
 30
0.0
 11
3581.5165262114269353
 21
1155.2527918371490614
 31
0.0
  0
INSERT
  5
1EBC
  8
0
  6
CONTINUOUS
 62
     2
  2
YA
 10
3581.5165262114269353
 20
2365.2528020206959809
 30
0.0
 41
40.0
 42
40.0
 43
40.0
 50
90.0
  0
INSERT
  5
1EBD
  8
0
  6
CONTINUOUS
 62
     2
  2
YA
 10
3581.5165262114269353
 20
1115.2527918371490614
 30
0.0
 41
40.0
 42
40.0
 43
40.0
 50
270.0
  0
INSERT
  5
1EBE
  8
0
 62
     7
  2
*U134
 10
0.0
 20
0.0
 30
0.0
  0
POINT
  5
1EBF
  8
DEFPOINTS
  6
CONTINUOUS
 62
     0
 10
4359.766194210447793
 20
2365.2528020206959809
 30
0.0
  0
POINT
  5
1EC0
  8
DEFPOINTS
  6
CONTINUOUS
 62
     0
 10
4161.5165262104728754
 20
1115.2527918371490614
 30
0.0
  0
POINT
  5
1EC1
  8
DEFPOINTS
  6
CONTINUOUS
 62
     0
 10
3581.5165262114269353
 20
1115.2527918371490614
 30
0.0
  0
ENDBLK
  5
1AEE
  8
0
 62
     7
  0
BLOCK
  8
0
 62
     7
  2
*D92
 70
     1
 10
0.0
 20
0.0
 30
0.0
  3
*D92
  1

  0
LINE
  5
1EC2
  8
0
  6
CONTINUOUS
 62
     2
 10
4141.5165262104719659
 20
1115.2527918371490614
 30
0.0
 11
3861.5165262114260258
 21
1115.2527918371490614
 31
0.0
  0
LINE
  5
1EC3
  8
0
  6
CONTINUOUS
 62
     2
 10
4131.5165262104719659
 20
1465.2527918371490614
 30
0.0
 11
3861.5165262114260258
 21
1465.2527918371490614
 31
0.0
  0
LINE
  5
1EC4
  8
0
  6
CONTINUOUS
 62
     2
 10
3881.5165262114260258
 20
1155.2527918371490614
 30
0.0
 11
3881.5165262114260258
 21
1425.2527918371490614
 31
0.0
  0
INSERT
  5
1EC5
  8
0
  6
CONTINUOUS
 62
     2
  2
YA
 10
3881.5165262114260258
 20
1115.2527918371490614
 30
0.0
 41
40.0
 42
40.0
 43
40.0
 50
270.0
  0
INSERT
  5
1EC6
  8
0
  6
CONTINUOUS
 62
     2
  2
YA
 10
3881.5165262114260258
 20
1465.2527918371490614
 30
0.0
 41
40.0
 42
40.0
 43
40.0
 50
90.0
  0
INSERT
  5
1EC7
  8
0
 62
     7
  2
*U135
 10
0.0
 20
0.0
 30
0.0
  0
POINT
  5
1EC8
  8
DEFPOINTS
  6
CONTINUOUS
 62
     0
 10
4161.5165262104728754
 20
1115.2527918371490614
 30
0.0
  0
POINT
  5
1EC9
  8
DEFPOINTS
  6
CONTINUOUS
 62
     0
 10
4151.5165262104728754
 20
1465.2527918371490614
 30
0.0
  0
POINT
  5
1ECA
  8
DEFPOINTS
  6
CONTINUOUS
 62
     0
 10
3881.5165262114260258
 20
1465.2527918371490614
 30
0.0
  0
ENDBLK
  5
1AFA
  8
0
 62
     7
  0
BLOCK
  8
0
 62
     7
  2
*D93
 70
     1
 10
0.0
 20
0.0
 30
0.0
  3
*D93
  1

  0
LINE
  5
1ECB
  8
0
  6
CONTINUOUS
 62
     2
 10
4821.5165262104728754
 20
1115.2527918371490614
 30
0.0
 11
5083.8784481795973988
 21
1115.2527918371490614
 31
0.0
  0
LINE
  5
1ECC
  8
0
  6
CONTINUOUS
 62
     2
 10
4958.1617654972960736
 20
1315.2526698371520979
 30
0.0
 11
5083.8784481795973988
 21
1315.2526698371520979
 31
0.0
  0
LINE
  5
1ECD
  8
0
  6
CONTINUOUS
 62
     2
 10
5063.8784481795973988
 20
1155.2527918371490614
 30
0.0
 11
5063.8784481795973988
 21
1275.2526698371520979
 31
0.0
  0
INSERT
  5
1ECE
  8
0
  6
CONTINUOUS
 62
     2
  2
YA
 10
5063.8784481795973988
 20
1115.2527918371490614
 30
0.0
 41
40.0
 42
40.0
 43
40.0
 50
270.0
  0
INSERT
  5
1ECF
  8
0
  6
CONTINUOUS
 62
     2
  2
YA
 10
5063.8784481795973988
 20
1315.2526698371520979
 30
0.0
 41
40.0
 42
40.0
 43
40.0
 50
90.0
  0
INSERT
  5
1ED0
  8
0
 62
     7
  2
*U136
 10
0.0
 20
0.0
 30
0.0
  0
POINT
  5
1ED1
  8
DEFPOINTS
  6
CONTINUOUS
 62
     0
 10
4801.5165262104728754
 20
1115.2527918371490614
 30
0.0
  0
POINT
  5
1ED2
  8
DEFPOINTS
  6
CONTINUOUS
 62
     0
 10
4938.1617654972960736
 20
1315.2526698371520979
 30
0.0
  0
POINT
  5
1ED3
  8
DEFPOINTS
  6
CONTINUOUS
 62
     0
 10
5063.8784481795973988
 20
1315.2526698371520979
 30
0.0
  0
ENDBLK
  5
1B06
  8
0
 62
     7
  0
BLOCK
  8
0
 62
     7
  2
*D94
 70
     1
 10
0.0
 20
0.0
 30
0.0
  3
*D94
  1

  0
LINE
  5
1ED4
  8
0
  6
CONTINUOUS
 62
     2
 10
4621.5165262104710564
 20
3165.252791837148834
 30
0.0
 11
4621.5165262104710564
 21
3324.0081922453250627
 31
0.0
  0
LINE
  5
1ED5
  8
0
  6
CONTINUOUS
 62
     2
 10
4661.5165262104710564
 20
3304.0081922453250627
 30
0.0
 11
4761.5165262104710564
 21
3304.0081922453250627
 31
0.0
  0
INSERT
  5
1ED6
  8
0
  6
CONTINUOUS
 62
     2
  2
YA
 10
4621.5165262104710564
 20
3304.0081922453250627
 30
0.0
 41
40.0
 42
40.0
 43
40.0
 50
180.0
  0
INSERT
  5
1ED7
  8
0
  6
CONTINUOUS
 62
     2
  2
YA
 10
4801.5165262104710564
 20
3304.0081922453250627
 30
0.0
 41
40.0
 42
40.0
 43
40.0
  0
INSERT
  5
1ED8
  8
0
 62
     7
  2
*U137
 10
0.0
 20
0.0
 30
0.0
  0
POINT
  5
1ED9
  8
DEFPOINTS
  6
CONTINUOUS
 62
     0
 10
4621.5165262104710564
 20
3145.252791837148834
 30
0.0
  0
POINT
  5
1EDA
  8
DEFPOINTS
  6
CONTINUOUS
 62
     0
 10
4801.5165262104710564
 20
3304.0081922453250627
 30
0.0
  0
POINT
  5
1EDB
  8
DEFPOINTS
  6
CONTINUOUS
 62
     0
 10
4801.5165262104710564
 20
3304.0081922453250627
 30
0.0
  0
ENDBLK
  5
1B12
  8
0
 62
     7
  0
BLOCK
  8
0
 62
     7
  2
*D95
 70
     1
 10
0.0
 20
0.0
 30
0.0
  3
*D95
  1

  0
LINE
  5
1E64
  8
0
  6
CONTINUOUS
 62
     2
 10
2866.9266896259518944
 20
4115.4535145172867487
 30
0.0
 11
3308.7796840766332025
 21
4115.4535145172867487
 31
0.0
  0
LINE
  5
1E65
  8
0
  6
CONTINUOUS
 62
     2
 10
2866.9266896259518944
 20
4955.4535145172867487
 30
0.0
 11
3308.7796840766332025
 21
4955.4535145172867487
 31
0.0
  0
LINE
  5
1E66
  8
0
  6
CONTINUOUS
 62
     2
 10
3288.7796840766332025
 20
4155.4535145172867487
 30
0.0
 11
3288.7796840766332025
 21
4915.4535145172867487
 31
0.0
  0
INSERT
  5
1E67
  8
0
  6
CONTINUOUS
 62
     2
  2
YA
 10
3288.7796840766332025
 20
4115.4535145172867487
 30
0.0
 41
40.0
 42
40.0
 43
40.0
 50
270.0
  0
INSERT
  5
1E68
  8
0
  6
CONTINUOUS
 62
     2
  2
YA
 10
3288.7796840766332025
 20
4955.4535145172867487
 30
0.0
 41
40.0
 42
40.0
 43
40.0
 50
90.0
  0
INSERT
  5
1E69
  8
0
 62
     7
  2
*U124
 10
0.0
 20
0.0
 30
0.0
  0
POINT
  5
1E6A
  8
DEFPOINTS
  6
CONTINUOUS
 62
     0
 10
2846.9266896259518944
 20
4115.4535145172867487
 30
0.0
  0
POINT
  5
1E6B
  8
DEFPOINTS
  6
CONTINUOUS
 62
     0
 10
2846.9266896259518944
 20
4955.4535145172867487
 30
0.0
  0
POINT
  5
1E6C
  8
DEFPOINTS
  6
CONTINUOUS
 62
     0
 10
3288.7796840766332025
 20
4955.4535145172867487
 30
0.0
  0
ENDBLK
  5
1B1D
  8
0
 62
     7
  0
BLOCK
  8
0
 62
     7
  2
*D96
 70
     1
 10
0.0
 20
0.0
 30
0.0
  3
*D96
  1

  0
LINE
  5
1E6D
  8
0
  6
CONTINUOUS
 62
     2
 10
3122.6431056243040985
 20
1115.2527918371490614
 30
0.0
 11
3303.6033764783878723
 21
1115.2527918371490614
 31
0.0
  0
LINE
  5
1E6E
  8
0
  6
CONTINUOUS
 62
     2
 10
2866.9266896259518944
 20
3145.2527918371511078
 30
0.0
 11
3303.6033764783878723
 21
3145.2527918371520173
 31
0.0
  0
LINE
  5
1E6F
  8
0
  6
CONTINUOUS
 62
     2
 10
3283.6033764783887818
 20
1155.2527918371490614
 30
0.0
 11
3283.6033764783878723
 21
3105.2527918371511078
 31
0.0
  0
INSERT
  5
1E70
  8
0
  6
CONTINUOUS
 62
     2
  2
YA
 10
3283.6033764783887818
 20
1115.2527918371490614
 30
0.0
 41
40.0
 42
40.0
 43
40.0
 50
270.0
  0
INSERT
  5
1E71
  8
0
  6
CONTINUOUS
 62
     2
  2
YA
 10
3283.6033764783878723
 20
3145.2527918371520173
 30
0.0
 41
40.0
 42
40.0
 43
40.0
 50
90.0
  0
INSERT
  5
1E72
  8
0
 62
     7
  2
*U125
 10
0.0
 20
0.0
 30
0.0
  0
POINT
  5
1E73
  8
DEFPOINTS
  6
CONTINUOUS
 62
     0
 10
3102.6431056243040985
 20
1115.2527918371490614
 30
0.0
  0
POINT
  5
1E74
  8
DEFPOINTS
  6
CONTINUOUS
 62
     0
 10
2846.9266896259518944
 20
3145.2527918371511078
 30
0.0
  0
POINT
  5
1E75
  8
DEFPOINTS
  6
CONTINUOUS
 62
     0
 10
3283.6033764783878723
 20
3145.2527918371520173
 30
0.0
  0
ENDBLK
  5
1B29
  8
0
 62
     7
  0
BLOCK
  8
0
 62
     7
  2
*D97
 70
     1
 10
0.0
 20
0.0
 30
0.0
  3
*D97
  1

  0
LINE
  5
1E76
  8
0
  6
CONTINUOUS
 62
     2
 10
1776.9265676259540214
 20
1315.2527918371490614
 30
0.0
 11
1702.1114340722210727
 21
1315.2527918371490614
 31
0.0
  0
LINE
  5
1E77
  8
0
  6
CONTINUOUS
 62
     2
 10
1703.9957742185799816
 20
1115.2527918371490614
 30
0.0
 11
1742.1114340722199358
 21
1115.2527918371490614
 31
0.0
  0
LINE
  5
1E78
  8
0
  6
CONTINUOUS
 62
     2
 10
1722.1114340722199358
 20
1275.2527918371490614
 30
0.0
 11
1722.1114340722199358
 21
1155.2527918371490614
 31
0.0
  0
INSERT
  5
1E79
  8
0
  6
CONTINUOUS
 62
     2
  2
YA
 10
1722.1114340722199358
 20
1315.2527918371490614
 30
0.0
 41
40.0
 42
40.0
 43
40.0
 50
90.0
  0
INSERT
  5
1E7A
  8
0
  6
CONTINUOUS
 62
     2
  2
YA
 10
1722.1114340722199358
 20
1115.2527918371490614
 30
0.0
 41
40.0
 42
40.0
 43
40.0
 50
270.0
  0
INSERT
  5
1E7B
  8
0
 62
     7
  2
*U126
 10
0.0
 20
0.0
 30
0.0
  0
POINT
  5
1E7C
  8
DEFPOINTS
  6
CONTINUOUS
 62
     0
 10
1796.9265676259540214
 20
1315.2527918371490614
 30
0.0
  0
POINT
  5
1E7D
  8
DEFPOINTS
  6
CONTINUOUS
 62
     0
 10
1683.9957742185799816
 20
1115.2527918371490614
 30
0.0
  0
POINT
  5
1E7E
  8
DEFPOINTS
  6
CONTINUOUS
 62
     0
 10
1722.1114340722199358
 20
1115.2527918371490614
 30
0.0
  0
ENDBLK
  5
1B35
  8
0
 62
     7
  0
BLOCK
  8
0
 62
     7
  2
*D98
 70
     1
 10
0.0
 20
0.0
 30
0.0
  3
*D98
  1

  0
LINE
  5
1E7F
  8
0
  6
CONTINUOUS
 62
     2
 10
346.9266896259504733
 20
4975.4535145172849298
 30
0.0
 11
346.9266896259504733
 21
5229.1312653836803293
 31
0.0
  0
LINE
  5
1E80
  8
0
  6
CONTINUOUS
 62
     2
 10
1846.9266896259500754
 20
5089.531864789489191
 30
0.0
 11
1846.9266896259500754
 21
5229.1312653836803293
 31
0.0
  0
LINE
  5
1E81
  8
0
  6
CONTINUOUS
 62
     2
 10
386.9266896259504733
 20
5209.1312653836794198
 30
0.0
 11
1806.9266896259500754
 21
5209.1312653836794198
 31
0.0
  0
INSERT
  5
1E82
  8
0
  6
CONTINUOUS
 62
     2
  2
YA
 10
346.9266896259504733
 20
5209.1312653836794198
 30
0.0
 41
40.0
 42
40.0
 43
40.0
 50
180.0
  0
INSERT
  5
1E83
  8
0
  6
CONTINUOUS
 62
     2
  2
YA
 10
1846.9266896259500754
 20
5209.1312653836794198
 30
0.0
 41
40.0
 42
40.0
 43
40.0
  0
INSERT
  5
1E84
  8
0
 62
     7
  2
*U127
 10
0.0
 20
0.0
 30
0.0
  0
POINT
  5
1E85
  8
DEFPOINTS
  6
CONTINUOUS
 62
     0
 10
346.9266896259504733
 20
4955.4535145172849298
 30
0.0
  0
POINT
  5
1E86
  8
DEFPOINTS
  6
CONTINUOUS
 62
     0
 10
1846.9266896259500754
 20
5069.531864789489191
 30
0.0
  0
POINT
  5
1E87
  8
DEFPOINTS
  6
CONTINUOUS
 62
     0
 10
1846.9266896259500754
 20
5209.1312653836794198
 30
0.0
  0
ENDBLK
  5
1B41
  8
0
 62
     7
  0
BLOCK
  8
0
 62
     7
  2
*D99
 70
     1
 10
0.0
 20
0.0
 30
0.0
  3
*D99
  1

  0
LINE
  5
1E88
  8
0
  6
CONTINUOUS
 62
     2
 10
346.9266896259504733
 20
3165.252791837148834
 30
0.0
 11
346.9266896259504733
 21
3476.0311746010561365
 31
0.0
  0
LINE
  5
1E89
  8
0
  6
CONTINUOUS
 62
     2
 10
2846.9266896259509849
 20
3165.252791837148834
 30
0.0
 11
2846.9266896259509849
 21
3476.0311746010561365
 31
0.0
  0
LINE
  5
1E8A
  8
0
  6
CONTINUOUS
 62
     2
 10
386.9266896259504733
 20
3456.0311746010561365
 30
0.0
 11
2806.9266896259509849
 21
3456.0311746010561365
 31
0.0
  0
INSERT
  5
1E8B
  8
0
  6
CONTINUOUS
 62
     2
  2
YA
 10
346.9266896259504733
 20
3456.0311746010561365
 30
0.0
 41
40.0
 42
40.0
 43
40.0
 50
180.0
  0
INSERT
  5
1E8C
  8
0
  6
CONTINUOUS
 62
     2
  2
YA
 10
2846.9266896259509849
 20
3456.0311746010561365
 30
0.0
 41
40.0
 42
40.0
 43
40.0
  0
INSERT
  5
1E8D
  8
0
 62
     7
  2
*U128
 10
0.0
 20
0.0
 30
0.0
  0
POINT
  5
1E8E
  8
DEFPOINTS
  6
CONTINUOUS
 62
     0
 10
346.9266896259504733
 20
3145.252791837148834
 30
0.0
  0
POINT
  5
1E8F
  8
DEFPOINTS
  6
CONTINUOUS
 62
     0
 10
2846.9266896259509849
 20
3145.252791837148834
 30
0.0
  0
POINT
  5
1E90
  8
DEFPOINTS
  6
CONTINUOUS
 62
     0
 10
2846.9266896259509849
 20
3456.0311746010561365
 30
0.0
  0
ENDBLK
  5
1B4D
  8
0
 62
     7
  0
BLOCK
  8
0
 62
     7
  2
*D100
 70
     1
 10
0.0
 20
0.0
 30
0.0
  3
*D100
  1

  0
LINE
  5
1E91
  8
0
  6
CONTINUOUS
 62
     2
 10
2846.9265676259528846
 20
4975.4535145172849298
 30
0.0
 11
2846.9265676259528846
 21
5229.1312653836803293
 31
0.0
  0
LINE
  5
1E92
  8
0
  6
CONTINUOUS
 62
     2
 10
1886.9266896259509849
 20
5209.1312653836794198
 30
0.0
 11
2806.9265676259528846
 21
5209.1312653836794198
 31
0.0
  0
INSERT
  5
1E93
  8
0
  6
CONTINUOUS
 62
     2
  2
YA
 10
1846.9266896259500754
 20
5209.1312653836794198
 30
0.0
 41
40.0
 42
40.0
 43
40.0
 50
180.0
  0
INSERT
  5
1E94
  8
0
  6
CONTINUOUS
 62
     2
  2
YA
 10
2846.9265676259528846
 20
5209.1312653836794198
 30
0.0
 41
40.0
 42
40.0
 43
40.0
  0
INSERT
  5
1E95
  8
0
 62
     7
  2
*U129
 10
0.0
 20
0.0
 30
0.0
  0
POINT
  5
1E96
  8
DEFPOINTS
  6
CONTINUOUS
 62
     0
 10
1846.9266896259500754
 20
5069.531864789489191
 30
0.0
  0
POINT
  5
1E97
  8
DEFPOINTS
  6
CONTINUOUS
 62
     0
 10
2846.9265676259528846
 20
4955.4535145172849298
 30
0.0
  0
POINT
  5
1E98
  8
DEFPOINTS
  6
CONTINUOUS
 62
     0
 10
2846.9265676259528846
 20
5209.1312653836794198
 30
0.0
  0
ENDBLK
  5
1B59
  8
0
 62
     7
  0
BLOCK
  8
0
 62
     7
  2
*D101
 70
     1
 10
0.0
 20
0.0
 30
0.0
  3
*D101
  1

  0
LINE
  5
1EDC
  8
0
  6
CONTINUOUS
 62
     2
 10
1346.9266896259500754
 20
1095.2527918371490614
 30
0.0
 11
1346.9266896259500754
 21
522.0510823739458601
 31
0.0
  0
LINE
  5
1EDD
  8
0
  6
CONTINUOUS
 62
     2
 10
2846.9266896259509849
 20
1095.2527918371490614
 30
0.0
 11
2846.9266896259509849
 21
522.0510823739458601
 31
0.0
  0
LINE
  5
1EDE
  8
0
  6
CONTINUOUS
 62
     2
 10
1386.9266896259500754
 20
542.0510823739458601
 30
0.0
 11
2806.9266896259509849
 21
542.0510823739458601
 31
0.0
  0
INSERT
  5
1EDF
  8
0
  6
CONTINUOUS
 62
     2
  2
YA
 10
1346.9266896259500754
 20
542.0510823739458601
 30
0.0
 41
40.0
 42
40.0
 43
40.0
 50
180.0
  0
INSERT
  5
1EE0
  8
0
  6
CONTINUOUS
 62
     2
  2
YA
 10
2846.9266896259509849
 20
542.0510823739458601
 30
0.0
 41
40.0
 42
40.0
 43
40.0
  0
INSERT
  5
1EE1
  8
0
 62
     7
  2
*U138
 10
0.0
 20
0.0
 30
0.0
  0
POINT
  5
1EE2
  8
DEFPOINTS
  6
CONTINUOUS
 62
     0
 10
1346.9266896259500754
 20
1115.2527918371490614
 30
0.0
  0
POINT
  5
1EE3
  8
DEFPOINTS
  6
CONTINUOUS
 62
     0
 10
2846.9266896259509849
 20
1115.2527918371490614
 30
0.0
  0
POINT
  5
1EE4
  8
DEFPOINTS
  6
CONTINUOUS
 62
     0
 10
2846.9266896259509849
 20
542.0510823739458601
 30
0.0
  0
ENDBLK
  5
1B88
  8
0
 62
     7
  0
BLOCK
  8
0
 62
     7
  2
*D102
 70
     1
 10
0.0
 20
0.0
 30
0.0
  3
*D102
  1

  0
LINE
  5
1EE5
  8
0
  6
CONTINUOUS
 62
     2
 10
2446.9266896259500754
 20
1095.2527918371490614
 30
0.0
 11
2446.9266896259500754
 21
666.2693032458190601
 31
0.0
  0
LINE
  5
1EE6
  8
0
  6
CONTINUOUS
 62
     2
 10
2846.9266896259509849
 20
1095.2527918371490614
 30
0.0
 11
2846.9266896259509849
 21
666.2693032458190601
 31
0.0
  0
LINE
  5
1EE7
  8
0
  6
CONTINUOUS
 62
     2
 10
2486.9266896259509849
 20
686.2693032458190601
 30
0.0
 11
2806.9266896259509849
 21
686.2693032458190601
 31
0.0
  0
INSERT
  5
1EE8
  8
0
  6
CONTINUOUS
 62
     2
  2
YA
 10
2446.9266896259500754
 20
686.2693032458190601
 30
0.0
 41
40.0
 42
40.0
 43
40.0
 50
180.0
  0
INSERT
  5
1EE9
  8
0
  6
CONTINUOUS
 62
     2
  2
YA
 10
2846.9266896259509849
 20
686.2693032458190601
 30
0.0
 41
40.0
 42
40.0
 43
40.0
  0
INSERT
  5
1EEA
  8
0
 62
     7
  2
*U139
 10
0.0
 20
0.0
 30
0.0
  0
POINT
  5
1EEB
  8
DEFPOINTS
  6
CONTINUOUS
 62
     0
 10
2446.9266896259500754
 20
1115.2527918371490614
 30
0.0
  0
POINT
  5
1EEC
  8
DEFPOINTS
  6
CONTINUOUS
 62
     0
 10
2846.9266896259509849
 20
1115.2527918371490614
 30
0.0
  0
POINT
  5
1EED
  8
DEFPOINTS
  6
CONTINUOUS
 62
     0
 10
2846.9266896259509849
 20
686.2693032458190601
 30
0.0
  0
ENDBLK
  5
1B94
  8
0
 62
     7
  0
BLOCK
  8
0
 62
     7
  2
*D103
 70
     1
 10
0.0
 20
0.0
 30
0.0
  3
*D103
  1

  0
LINE
  5
1EEE
  8
0
  6
CONTINUOUS
 62
     2
 10
2246.9266896259509849
 20
1095.2527918371490614
 30
0.0
 11
2246.9266896259509849
 21
666.2693032458190601
 31
0.0
  0
LINE
  5
1EEF
  8
0
  6
CONTINUOUS
 62
     2
 10
2446.9266896259500754
 20
1095.2527918371490614
 30
0.0
 11
2446.9266896259500754
 21
666.2693032458190601
 31
0.0
  0
LINE
  5
1EF0
  8
0
  6
CONTINUOUS
 62
     2
 10
2286.9266896259509849
 20
686.2693032458190601
 30
0.0
 11
2406.9266896259509849
 21
686.2693032458190601
 31
0.0
  0
INSERT
  5
1EF1
  8
0
  6
CONTINUOUS
 62
     2
  2
YA
 10
2246.9266896259509849
 20
686.2693032458190601
 30
0.0
 41
40.0
 42
40.0
 43
40.0
 50
180.0
  0
INSERT
  5
1EF2
  8
0
  6
CONTINUOUS
 62
     2
  2
YA
 10
2446.9266896259500754
 20
686.2693032458190601
 30
0.0
 41
40.0
 42
40.0
 43
40.0
  0
INSERT
  5
1EF3
  8
0
 62
     7
  2
*U140
 10
0.0
 20
0.0
 30
0.0
  0
POINT
  5
1EF4
  8
DEFPOINTS
  6
CONTINUOUS
 62
     0
 10
2246.9266896259509849
 20
1115.2527918371490614
 30
0.0
  0
POINT
  5
1EF5
  8
DEFPOINTS
  6
CONTINUOUS
 62
     0
 10
2446.9266896259500754
 20
1115.2527918371490614
 30
0.0
  0
POINT
  5
1EF6
  8
DEFPOINTS
  6
CONTINUOUS
 62
     0
 10
2446.9266896259500754
 20
686.2693032458190601
 30
0.0
  0
ENDBLK
  5
1BA0
  8
0
 62
     7
  0
BLOCK
  8
0
 62
     7
  2
*D104
 70
     1
 10
0.0
 20
0.0
 30
0.0
  3
*D104
  1

  0
LINE
  5
1EF7
  8
0
  6
CONTINUOUS
 62
     2
 10
4601.5165262104701469
 20
1095.2527918371490614
 30
0.0
 11
4601.5165262104701469
 21
918.4985626445850357
 31
0.0
  0
LINE
  5
1EF8
  8
0
  6
CONTINUOUS
 62
     2
 10
4651.5165262104701469
 20
1095.2527918371490614
 30
0.0
 11
4651.5165262104701469
 21
918.4985626445850357
 31
0.0
  0
LINE
  5
1EF9
  8
0
  6
CONTINUOUS
 62
     2
 10
4561.5165262104701469
 20
938.4985626445850357
 30
0.0
 11
4521.5165262104710564
 21
938.4985626445850357
 31
0.0
  0
LINE
  5
1EFA
  8
0
  6
CONTINUOUS
 62
     2
 10
4691.5165262104710564
 20
938.4985626445850357
 30
0.0
 11
4731.5165262104710564
 21
938.4985626445850357
 31
0.0
  0
INSERT
  5
1EFB
  8
0
 62
     7
  2
*U141
 10
0.0
 20
0.0
 30
0.0
  0
LINE
  5
1EFC
  8
0
  6
CONTINUOUS
 62
     2
 10
4601.5165262104701469
 20
938.4985626445850357
 30
0.0
 11
4651.5165262104701469
 21
938.4985626445850357
 31
0.0
  0
INSERT
  5
1EFD
  8
0
  6
CONTINUOUS
 62
     2
  2
YA
 10
4601.5165262104701469
 20
938.4985626445850357
 30
0.0
 41
40.0
 42
40.0
 43
40.0
  0
INSERT
  5
1EFE
  8
0
  6
CONTINUOUS
 62
     2
  2
YA
 10
4651.5165262104701469
 20
938.4985626445850357
 30
0.0
 41
40.0
 42
40.0
 43
40.0
 50
180.0
  0
POINT
  5
1EFF
  8
DEFPOINTS
  6
CONTINUOUS
 62
     0
 10
4601.5165262104701469
 20
1115.2527918371490614
 30
0.0
  0
POINT
  5
1F00
  8
DEFPOINTS
  6
CONTINUOUS
 62
     0
 10
4651.5165262104701469
 20
1115.2527918371490614
 30
0.0
  0
POINT
  5
1F01
  8
DEFPOINTS
  6
CONTINUOUS
 62
     0
 10
4651.5165262104701469
 20
938.4985626445850357
 30
0.0
  0
ENDBLK
  5
1BD0
  8
0
 62
     7
  0
BLOCK
  8
0
 62
     7
  2
*D105
 70
     1
 10
0.0
 20
0.0
 30
0.0
  3
*D105
  1

  0
LINE
  5
1F02
  8
0
  6
CONTINUOUS
 62
     2
 10
4801.5165262104710564
 20
1095.2527918371490614
 30
0.0
 11
4801.5165262104710564
 21
918.4985626445850357
 31
0.0
  0
LINE
  5
1F03
  8
0
  6
CONTINUOUS
 62
     2
 10
4691.5165262104710564
 20
938.4985626445850357
 30
0.0
 11
4761.5165262104710564
 21
938.4985626445850357
 31
0.0
  0
INSERT
  5
1F04
  8
0
  6
CONTINUOUS
 62
     2
  2
YA
 10
4651.5165262104701469
 20
938.4985626445850357
 30
0.0
 41
40.0
 42
40.0
 43
40.0
 50
180.0
  0
INSERT
  5
1F05
  8
0
  6
CONTINUOUS
 62
     2
  2
YA
 10
4801.5165262104710564
 20
938.4985626445850357
 30
0.0
 41
40.0
 42
40.0
 43
40.0
  0
INSERT
  5
1F06
  8
0
 62
     7
  2
*U142
 10
0.0
 20
0.0
 30
0.0
  0
POINT
  5
1F07
  8
DEFPOINTS
  6
CONTINUOUS
 62
     0
 10
4651.5165262104701469
 20
1115.2527918371490614
 30
0.0
  0
POINT
  5
1F08
  8
DEFPOINTS
  6
CONTINUOUS
 62
     0
 10
4801.5165262104710564
 20
1115.2527918371490614
 30
0.0
  0
POINT
  5
1F09
  8
DEFPOINTS
  6
CONTINUOUS
 62
     0
 10
4801.5165262104710564
 20
938.4985626445850357
 30
0.0
  0
ENDBLK
  5
1BDE
  8
0
 62
     7
  0
BLOCK
  8
0
 62
     7
  2
*U106
 70
     1
 10
0.0
 20
0.0
 30
0.0
  3
*U106
  1

  0
INSERT
  5
23D9
  8
0
  6
CONTINUOUS
 62
     2
  2
YA
 10
1846.9265676259531119
 20
1360.2527918371490614
 30
0.0
 41
40.0
 42
40.0
 43
40.0
 50
288.5202994448349045
  0
POLYLINE
  5
23DA
  8
0
  6
CONTINUOUS
 62
     2
 66
     1
 10
0.0
 20
0.0
 30
0.0
  0
VERTEX
  5
23DB
  8
0
  6
CONTINUOUS
 62
     2
 10
1834.2209428215919615
 20
1398.1812389228230131
 30
0.0
  0
VERTEX
  5
23DC
  8
0
  6
CONTINUOUS
 62
     2
 10
1763.5314928113950828
 20
1609.201248210913036
 30
0.0
  0
SEQEND
  5
23DD
  8
0
  6
CONTINUOUS
 62
     2
  0
ENDBLK
  5
23DF
  8
0
 62
     7
  0
BLOCK
  8
0
 62
     7
  2
*U107
 70
     1
 10
0.0
 20
0.0
 30
0.0
  3
*U107
  1

  0
INSERT
  5
23E1
  8
0
  6
CONTINUOUS
 62
     2
  2
YA
 10
4876.5165262104710564
 20
1315.2527918371490614
 30
0.0
 41
40.0
 42
40.0
 43
40.0
 50
241.100629628799112
  0
POLYLINE
  5
23E2
  8
0
  6
CONTINUOUS
 62
     2
 66
     1
 10
0.0
 20
0.0
 30
0.0
  0
VERTEX
  5
23E3
  8
0
  6
CONTINUOUS
 62
     2
 10
4895.8474367169692414
 20
1350.2715853484880881
 30
0.0
  0
VERTEX
  5
23E4
  8
0
  6
CONTINUOUS
 62
     2
 10
5014.8763120598741807
 20
1565.897621489885978
 30
0.0
  0
SEQEND
  5
23E5
  8
0
  6
CONTINUOUS
 62
     2
  0
ENDBLK
  5
23E7
  8
0
 62
     7
  0
BLOCK
  8
0
 62
     7
  2
*U108
 70
     1
 10
0.0
 20
0.0
 30
0.0
  3
*U108
  1

  0
INSERT
  5
23E9
  8
0
  6
CONTINUOUS
 62
     2
  2
YA
 10
2377.4514609019970521
 20
2825.2408099615718129
 30
0.0
 41
40.0
 42
40.0
 43
40.0
 50
331.6984908828231937
  0
POLYLINE
  5
23EA
  8
0
  6
CONTINUOUS
 62
     2
 66
     1
 10
0.0
 20
0.0
 30
0.0
  0
VERTEX
  5
23EB
  8
0
  6
CONTINUOUS
 62
     2
 10
2342.2328662554259608
 20
2844.2052659548371594
 30
0.0
  0
VERTEX
  5
23EC
  8
0
  6
CONTINUOUS
 62
     2
 10
2138.5499423333089908
 20
2953.8841411644830259
 30
0.0
  0
SEQEND
  5
23ED
  8
0
  6
CONTINUOUS
 62
     2
  0
ENDBLK
  5
23EF
  8
0
 62
     7
  0
BLOCK
  8
0
 62
     7
  2
*U109
 70
     1
 10
0.0
 20
0.0
 30
0.0
  3
*U109
  1

  0
INSERT
  5
23F1
  8
0
  6
CONTINUOUS
 62
     2
  2
YA
 10
2474.1766896258918678
 20
2370.002791837148834
 30
0.0
 41
40.0
 42
40.0
 43
40.0
 50
178.3502747682418885
  0
POLYLINE
  5
23F2
  8
0
  6
CONTINUOUS
 62
     2
 66
     1
 10
0.0
 20
0.0
 30
0.0
  0
VERTEX
  5
23F3
  8
0
  6
CONTINUOUS
 62
     2
 10
2514.1601098765659117
 20
2368.8512254873148777
 30
0.0
  0
VERTEX
  5
23F4
  8
0
  6
CONTINUOUS
 62
     2
 10
2966.3108662365120836
 20
2355.8287878666310462
 30
0.0
  0
SEQEND
  5
23F5
  8
0
  6
CONTINUOUS
 62
     2
  0
ENDBLK
  5
23F7
  8
0
 62
     7
  0
BLOCK
  8
0
 62
     7
  2
*U110
 70
     1
 10
0.0
 20
0.0
 30
0.0
  3
*U110
  1

  0
INSERT
  5
23F9
  8
0
  6
CONTINUOUS
 62
     2
  2
YA
 10
2021.9266896258338875
 20
2706.7527918372070417
 30
0.0
 41
40.0
 42
40.0
 43
40.0
 50
285.7510427922301801
  0
POLYLINE
  5
23FA
  8
0
  6
CONTINUOUS
 62
     2
 66
     1
 10
0.0
 20
0.0
 30
0.0
  0
VERTEX
  5
23FB
  8
0
  6
CONTINUOUS
 62
     2
 10
2011.0683709595421078
 20
2745.2508036786161938
 30
0.0
  0
VERTEX
  5
23FC
  8
0
  6
CONTINUOUS
 62
     2
 10
1959.1103554789440295
 20
2929.4671963543519269
 30
0.0
  0
SEQEND
  5
23FD
  8
0
  6
CONTINUOUS
 62
     2
  0
ENDBLK
  5
23FF
  8
0
 62
     7
  0
BLOCK
  8
0
 62
     7
  2
*U111
 70
     1
 10
0.0
 20
0.0
 30
0.0
  3
*U111
  1

  0
INSERT
  5
2401
  8
0
  6
CONTINUOUS
 62
     2
  2
YA
 10
2686.9266896258918678
 20
2971.6329429171751144
 30
0.0
 41
40.0
 42
40.0
 43
40.0
 50
181.0293112288723876
  0
POLYLINE
  5
2402
  8
0
  6
CONTINUOUS
 62
     2
 66
     1
 10
0.0
 20
0.0
 30
0.0
  0
VERTEX
  5
2403
  8
0
  6
CONTINUOUS
 62
     2
 10
2726.9202350684267913
 20
2972.3514990638600466
 30
0.0
  0
VERTEX
  5
2404
  8
0
  6
CONTINUOUS
 62
     2
 10
2966.5653925936207997
 20
2976.6571563657489605
 30
0.0
  0
SEQEND
  5
2405
  8
0
  6
CONTINUOUS
 62
     2
  0
ENDBLK
  5
2407
  8
0
 62
     7
  0
BLOCK
  8
0
 62
     7
  2
*U112
 70
     1
 10
0.0
 20
0.0
 30
0.0
  3
*U112
  1

  0
INSERT
  5
2409
  8
0
  6
CONTINUOUS
 62
     2
  2
YA
 10
2785.9266896259509849
 20
3085.9886638442990261
 30
0.0
 41
40.0
 42
40.0
 43
40.0
 50
178.6179666067461085
  0
POLYLINE
  5
240A
  8
0
  6
CONTINUOUS
 62
     2
 66
     1
 10
0.0
 20
0.0
 30
0.0
  0
VERTEX
  5
240B
  8
0
  6
CONTINUOUS
 62
     2
 10
2825.9150537053969856
 20
3085.023916079529954
 30
0.0
  0
VERTEX
  5
240C
  8
0
  6
CONTINUOUS
 62
     2
 10
2966.3046864505158737
 20
3081.6369161983029699
 30
0.0
  0
SEQEND
  5
240D
  8
0
  6
CONTINUOUS
 62
     2
  0
ENDBLK
  5
240F
  8
0
 62
     7
  0
BLOCK
  8
0
 62
     7
  2
*U113
 70
     1
 10
0.0
 20
0.0
 30
0.0
  3
*U113
  1

  0
INSERT
  5
2411
  8
0
  6
CONTINUOUS
 62
     2
  2
YA
 10
2466.9266896259500754
 20
1165.2527918371490614
 30
0.0
 41
40.0
 42
40.0
 43
40.0
 50
152.2820373699996992
  0
POLYLINE
  5
2412
  8
0
  6
CONTINUOUS
 62
     2
 66
     1
 10
0.0
 20
0.0
 30
0.0
  0
VERTEX
  5
2413
  8
0
  6
CONTINUOUS
 62
     2
 10
2502.3366036656998403
 20
1146.6480078368549584
 30
0.0
  0
VERTEX
  5
2414
  8
0
  6
CONTINUOUS
 62
     2
 10
2894.7630593999060693
 20
940.4625469871097039
 30
0.0
  0
SEQEND
  5
2415
  8
0
  6
CONTINUOUS
 62
     2
  0
ENDBLK
  5
2417
  8
0
 62
     7
  0
BLOCK
  8
0
 62
     7
  2
*U114
 70
     1
 10
0.0
 20
0.0
 30
0.0
  3
*U114
  1

  0
INSERT
  5
2419
  8
0
  6
CONTINUOUS
 62
     2
  2
YA
 10
2266.9266896259500754
 20
1165.2527918372070417
 30
0.0
 41
40.0
 42
40.0
 43
40.0
 50
145.6630173484498982
  0
POLYLINE
  5
241A
  8
0
  6
CONTINUOUS
 62
     2
 66
     1
 10
0.0
 20
0.0
 30
0.0
  0
VERTEX
  5
241B
  8
0
  6
CONTINUOUS
 62
     2
 10
2299.9560649786249087
 20
1142.690425742043999
 30
0.0
  0
VERTEX
  5
241C
  8
0
  6
CONTINUOUS
 62
     2
 10
2881.1709163297200575
 20
745.6625644486630335
 30
0.0
  0
SEQEND
  5
241D
  8
0
  6
CONTINUOUS
 62
     2
  0
ENDBLK
  5
241F
  8
0
 62
     7
  0
BLOCK
  8
0
 62
     7
  2
*U115
 70
     1
 10
0.0
 20
0.0
 30
0.0
  3
*U115
  1

  0
INSERT
  5
2421
  8
0
  6
CONTINUOUS
 62
     2
  2
YA
 10
1346.9266896259500754
 20
1115.2527918371490614
 30
0.0
 41
40.0
 42
40.0
 43
40.0
 50
48.1328565808194995
  0
POLYLINE
  5
2422
  8
0
  6
CONTINUOUS
 62
     2
 66
     1
 10
0.0
 20
0.0
 30
0.0
  0
VERTEX
  5
2423
  8
0
  6
CONTINUOUS
 62
     2
 10
1320.2304649810030241
 20
1085.4650159935829379
 30
0.0
  0
VERTEX
  5
2424
  8
0
  6
CONTINUOUS
 62
     2
 10
1183.7783756612329853
 20
933.2111185192478615
 30
0.0
  0
SEQEND
  5
2425
  8
0
  6
CONTINUOUS
 62
     2
  0
ENDBLK
  5
2427
  8
0
 62
     7
  0
BLOCK
  8
0
 62
     7
  2
*U116
 70
     1
 10
0.0
 20
0.0
 30
0.0
  3
*U116
  1

  0
INSERT
  5
2429
  8
0
  6
CONTINUOUS
 62
     2
  2
YA
 10
2146.3789595564007868
 20
1390.2525638371009791
 30
0.0
 41
40.0
 42
40.0
 43
40.0
 50
199.0918429412919863
  0
POLYLINE
  5
242A
  8
0
  6
CONTINUOUS
 62
     2
 66
     1
 10
0.0
 20
0.0
 30
0.0
  0
VERTEX
  5
242B
  8
0
  6
CONTINUOUS
 62
     2
 10
2184.1787790678267811
 20
1403.3358984618689647
 30
0.0
  0
VERTEX
  5
242C
  8
0
  6
CONTINUOUS
 62
     2
 10
2969.0189216237631626
 20
1674.98603713267903
 30
0.0
  0
SEQEND
  5
242D
  8
0
  6
CONTINUOUS
 62
     2
  0
ENDBLK
  5
242F
  8
0
 62
     7
  0
BLOCK
  8
0
 62
     7
  2
*U117
 70
     1
 10
0.0
 20
0.0
 30
0.0
  3
*U117
  1

  0
INSERT
  5
2431
  8
0
  6
CONTINUOUS
 62
     2
  2
YA
 10
2655.5046351638738997
 20
2523.0231814672010842
 30
0.0
 41
40.0
 42
40.0
 43
40.0
 50
174.6301856317014938
  0
POLYLINE
  5
2432
  8
0
  6
CONTINUOUS
 62
     2
 66
     1
 10
0.0
 20
0.0
 30
0.0
  0
VERTEX
  5
2433
  8
0
  6
CONTINUOUS
 62
     2
 10
2695.3290914172689554
 20
2519.2798294771559995
 30
0.0
  0
VERTEX
  5
2434
  8
0
  6
CONTINUOUS
 62
     2
 10
2966.5095712330657989
 20
2493.7898646595422179
 30
0.0
  0
SEQEND
  5
2435
  8
0
  6
CONTINUOUS
 62
     2
  0
ENDBLK
  5
2437
  8
0
 62
     7
  0
BLOCK
  8
0
 62
     7
  2
*U118
 70
     1
 10
0.0
 20
0.0
 30
0.0
  3
*U118
  1

  0
INSERT
  5
2439
  8
0
  6
CONTINUOUS
 62
     2
  2
YA
 10
2635.4041290023019428
 20
2814.8200145966839045
 30
0.0
 41
40.0
 42
40.0
 43
40.0
 50
187.0311294115342946
  0
POLYLINE
  5
243A
  8
0
  6
CONTINUOUS
 62
     2
 66
     1
 10
0.0
 20
0.0
 30
0.0
  0
VERTEX
  5
243B
  8
0
  6
CONTINUOUS
 62
     2
 10
2675.103320691504905
 20
2819.7163580511341934
 30
0.0
  0
VERTEX
  5
243C
  8
0
  6
CONTINUOUS
 62
     2
 10
2966.7984783997521845
 20
2855.6929010326862226
 30
0.0
  0
SEQEND
  5
243D
  8
0
  6
CONTINUOUS
 62
     2
  0
ENDBLK
  5
243F
  8
0
 62
     7
  0
BLOCK
  8
0
 62
     7
  2
*U119
 70
     1
 10
0.0
 20
0.0
 30
0.0
  3
*U119
  1

  0
INSERT
  5
2441
  8
0
  6
CONTINUOUS
 62
     2
  2
YA
 10
2625.4095845332490171
 20
2799.1328857742491891
 30
0.0
 41
40.0
 42
40.0
 43
40.0
 50
173.8786631071679096
  0
POLYLINE
  5
2442
  8
0
  6
CONTINUOUS
 62
     2
 66
     1
 10
0.0
 20
0.0
 30
0.0
  0
VERTEX
  5
2443
  8
0
  6
CONTINUOUS
 62
     2
 10
2665.1815166352048436
 20
2794.8675115963601456
 30
0.0
  0
VERTEX
  5
2444
  8
0
  6
CONTINUOUS
 62
     2
 10
2968.4154970026579576
 20
2762.346929332416039
 30
0.0
  0
SEQEND
  5
2445
  8
0
  6
CONTINUOUS
 62
     2
  0
ENDBLK
  5
2447
  8
0
 62
     7
  0
BLOCK
  8
0
 62
     7
  2
*U120
 70
     1
 10
0.0
 20
0.0
 30
0.0
  3
*U120
  1

  0
INSERT
  5
2449
  8
0
  6
CONTINUOUS
 62
     2
  2
YA
 10
2635.9210719971461003
 20
2603.2707287059170085
 30
0.0
 41
40.0
 42
40.0
 43
40.0
 50
182.0244892985568015
  0
POLYLINE
  5
244A
  8
0
  6
CONTINUOUS
 62
     2
 66
     1
 10
0.0
 20
0.0
 30
0.0
  0
VERTEX
  5
244B
  8
0
  6
CONTINUOUS
 62
     2
 10
2675.8961047582479296
 20
2604.6837947867538787
 30
0.0
  0
VERTEX
  5
244C
  8
0
  6
CONTINUOUS
 62
     2
 10
2963.6250796860549599
 20
2614.8546446113041384
 30
0.0
  0
SEQEND
  5
244D
  8
0
  6
CONTINUOUS
 62
     2
  0
ENDBLK
  5
244F
  8
0
 62
     7
  0
BLOCK
  8
0
 62
     7
  2
*U121
 70
     1
 10
0.0
 20
0.0
 30
0.0
  3
*U121
  1

  0
INSERT
  5
2451
  8
0
  6
CONTINUOUS
 62
     2
  2
YA
 10
5009.2632228769361973
 20
4823.7656750109736095
 30
0.0
 41
40.0
 42
40.0
 43
40.0
 50
275.7873907477638795
  0
POLYLINE
  5
2452
  8
0
  6
CONTINUOUS
 62
     2
 66
     1
 10
0.0
 20
0.0
 30
0.0
  0
VERTEX
  5
2453
  8
0
  6
CONTINUOUS
 62
     2
 10
5005.2297289414400439
 20
4863.5617919908036129
 30
0.0
  0
VERTEX
  5
2454
  8
0
  6
CONTINUOUS
 62
     2
 10
4996.3208351356443018
 20
4951.4606176060633516
 30
0.0
  0
SEQEND
  5
2455
  8
0
  6
CONTINUOUS
 62
     2
  0
ENDBLK
  5
2457
  8
0
 62
     7
  0
BLOCK
  8
0
 62
     7
  2
*U122
 70
     1
 10
0.0
 20
0.0
 30
0.0
  3
*U122
  1

  0
INSERT
  5
2459
  8
0
  6
CONTINUOUS
 62
     2
  2
YA
 10
4759.0422639233884183
 20
4333.3604902779916301
 30
0.0
 41
40.0
 42
40.0
 43
40.0
 50
161.4895894887386874
  0
POLYLINE
  5
245A
  8
0
  6
CONTINUOUS
 62
     2
 66
     1
 10
0.0
 20
0.0
 30
0.0
  0
VERTEX
  5
245B
  8
0
  6
CONTINUOUS
 62
     2
 10
4796.9729033644589435
 20
4320.6614119023197418
 30
0.0
  0
VERTEX
  5
245C
  8
0
  6
CONTINUOUS
 62
     2
 10
4888.2711185740190558
 20
4290.0950094480058397
 30
0.0
  0
SEQEND
  5
245D
  8
0
  6
CONTINUOUS
 62
     2
  0
ENDBLK
  5
245F
  8
0
 62
     7
  0
BLOCK
  8
0
 62
     7
  2
*U123
 70
     1
 10
0.0
 20
0.0
 30
0.0
  3
*U123
  1

  0
INSERT
  5
2461
  8
0
  6
CONTINUOUS
 62
     2
  2
YA
 10
4750.7040281592053361
 20
4044.2791912776879144
 30
0.0
 41
40.0
 42
40.0
 43
40.0
 50
174.6141435747838955
  0
POLYLINE
  5
2462
  8
0
  6
CONTINUOUS
 62
     2
 66
     1
 10
0.0
 20
0.0
 30
0.0
  0
VERTEX
  5
2463
  8
0
  6
CONTINUOUS
 62
     2
 10
4790.5274347628283067
 20
4040.5246891159508777
 30
0.0
  0
VERTEX
  5
2464
  8
0
  6
CONTINUOUS
 62
     2
 10
4890.649705826304853
 20
4031.0852836203989682
 30
0.0
  0
SEQEND
  5
2465
  8
0
  6
CONTINUOUS
 62
     2
  0
ENDBLK
  5
2467
  8
0
 62
     7
  0
BLOCK
  8
0
 62
     7
  2
*U124
 70
     1
 10
0.0
 20
0.0
 30
0.0
  3
*U124
  1

  0
TEXT
  5
2479
  8
0
 62
     2
 10
3268.779684076634112
 20
4484.0249430887133713
 30
0.0
 40
50.0
  1
840
 50
90.0
 41
0.8
  0
ENDBLK
  5
247B
  8
0
 62
     7
  0
BLOCK
  8
0
 62
     7
  2
*U125
 70
     1
 10
0.0
 20
0.0
 30
0.0
  3
*U125
  1

  0
TEXT
  5
247D
  8
0
 62
     2
 10
3263.6033764783878723
 20
2059.7766013609589208
 30
0.0
 40
50.0
  1
2030
 50
90.0
 41
0.8
  0
ENDBLK
  5
247F
  8
0
 62
     7
  0
BLOCK
  8
0
 62
     7
  2
*U126
 70
     1
 10
0.0
 20
0.0
 30
0.0
  3
*U126
  1

  0
TEXT
  5
2481
  8
0
 62
     2
 10
1702.1114340722199358
 20
1163.8242204085770481
 30
0.0
 40
50.0
  1
200
 50
90.0
 41
0.8
  0
ENDBLK
  5
2483
  8
0
 62
     7
  0
BLOCK
  8
0
 62
     7
  2
*U127
 70
     1
 10
0.0
 20
0.0
 30
0.0
  3
*U127
  1

  0
TEXT
  5
2485
  8
0
 62
     2
 10
1030.2600229592840151
 20
5229.1312653836803293
 30
0.0
 40
50.0
  1
1500
 41
0.8
  0
ENDBLK
  5
2487
  8
0
 62
     7
  0
BLOCK
  8
0
 62
     7
  2
*U128
 70
     1
 10
0.0
 20
0.0
 30
0.0
  3
*U128
  1

  0
TEXT
  5
2489
  8
0
 62
     2
 10
1526.4504991497599349
 20
3476.0311746010561365
 30
0.0
 40
50.0
  1
2500
 41
0.8
  0
ENDBLK
  5
248B
  8
0
 62
     7
  0
BLOCK
  8
0
 62
     7
  2
*U129
 70
     1
 10
0.0
 20
0.0
 30
0.0
  3
*U129
  1

  0
TEXT
  5
248D
  8
0
 62
     2
 10
2280.2599619592851923
 20
5229.1312653836803293
 30
0.0
 40
50.0
  1
1000
 41
0.8
  0
ENDBLK
  5
248F
  8
0
 62
     7
  0
BLOCK
  8
0
 62
     7
  2
*U130
 70
     1
 10
0.0
 20
0.0
 30
0.0
  3
*U130
  1

  0
TEXT
  5
2491
  8
0
 62
     2
 10
1597.2420834775300591
 20
4120.7802826950046438
 30
0.0
 40
50.0
  1
R595.7
 50
275.5524491617778722
 41
0.8
  0
ENDBLK
  5
2493
  8
0
 62
     7
  0
BLOCK
  8
0
 62
     7
  2
*U131
 70
     1
 10
0.0
 20
0.0
 30
0.0
  3
*U131
  1

  0
TEXT
  5
2495
  8
0
 62
     2
 10
4330.0879547818985884
 20
658.4985626445850357
 30
0.0
 40
50.0
  1
840
 41
0.8
  0
ENDBLK
  5
2497
  8
0
 62
     7
  0
BLOCK
  8
0
 62
     7
  2
*U132
 70
     1
 10
0.0
 20
0.0
 30
0.0
  3
*U132
  1

  0
TEXT
  5
2499
  8
0
 62
     2
 10
4430.0879547818985884
 20
808.4985626445851494
 30
0.0
 40
50.0
  1
640
 41
0.8
  0
ENDBLK
  5
249B
  8
0
 62
     7
  0
BLOCK
  8
0
 62
     7
  2
*U133
 70
     1
 10
0.0
 20
0.0
 30
0.0
  3
*U133
  1

  0
TEXT
  5
249D
  8
0
 62
     2
 10
3711.5165262114260258
 20
1498.8173439085730934
 30
0.0
 40
50.0
  1
870
 50
90.0
 41
0.8
  0
ENDBLK
  5
249F
  8
0
 62
     7
  0
BLOCK
  8
0
 62
     7
  2
*U134
 70
     1
 10
0.0
 20
0.0
 30
0.0
  3
*U134
  1

  0
TEXT
  5
24A1
  8
0
 62
     2
 10
3561.5165262114260258
 20
1673.5861302622549829
 30
0.0
 40
50.0
  1
1250
 50
90.0
 41
0.8
  0
ENDBLK
  5
24A3
  8
0
 62
     7
  0
BLOCK
  8
0
 62
     7
  2
*U135
 70
     1
 10
0.0
 20
0.0
 30
0.0
  3
*U135
  1

  0
TEXT
  5
24A5
  8
0
 62
     2
 10
3861.5165262114260258
 20
1238.8242204085770481
 30
0.0
 40
50.0
  1
350
 50
90.0
 41
0.8
  0
ENDBLK
  5
24A7
  8
0
 62
     7
  0
BLOCK
  8
0
 62
     7
  2
*U136
 70
     1
 10
0.0
 20
0.0
 30
0.0
  3
*U136
  1

  0
TEXT
  5
24A9
  8
0
 62
     2
 10
5043.8784481795955799
 20
1163.8241594085770885
 30
0.0
 40
50.0
  1
200
 50
90.0
 41
0.8
  0
ENDBLK
  5
24AB
  8
0
 62
     7
  0
BLOCK
  8
0
 62
     7
  2
*U137
 70
     1
 10
0.0
 20
0.0
 30
0.0
  3
*U137
  1

  0
TEXT
  5
24AD
  8
0
 62
     2
 10
4663.8974785914233507
 20
3324.0081922453250627
 30
0.0
 40
50.0
  1
180
 41
0.8
  0
ENDBLK
  5
24AF
  8
0
 62
     7
  0
BLOCK
  8
0
 62
     7
  2
*U138
 70
     1
 10
0.0
 20
0.0
 30
0.0
  3
*U138
  1

  0
TEXT
  5
24B1
  8
0
 62
     2
 10
2030.2600229592840151
 20
562.0510823739459738
 30
0.0
 40
50.0
  1
1500
 41
0.8
  0
ENDBLK
  5
24B3
  8
0
 62
     7
  0
BLOCK
  8
0
 62
     7
  2
*U139
 70
     1
 10
0.0
 20
0.0
 30
0.0
  3
*U139
  1

  0
TEXT
  5
24B5
  8
0
 62
     2
 10
2595.4981181973789717
 20
706.2693032458191738
 30
0.0
 40
50.0
  1
400
 41
0.8
  0
ENDBLK
  5
24B7
  8
0
 62
     7
  0
BLOCK
  8
0
 62
     7
  2
*U140
 70
     1
 10
0.0
 20
0.0
 30
0.0
  3
*U140
  1

  0
TEXT
  5
24B9
  8
0
 62
     2
 10
2295.4981181973789717
 20
706.2693032458191738
 30
0.0
 40
50.0
  1
200
 41
0.8
  0
ENDBLK
  5
24BB
  8
0
 62
     7
  0
BLOCK
  8
0
 62
     7
  2
*U141
 70
     1
 10
0.0
 20
0.0
 30
0.0
  3
*U141
  1

  0
TEXT
  5
24BD
  8
0
 62
     2
 10
4511.5110296161092265
 20
958.4985626445851494
 30
0.0
 40
50.0
  1
50
 41
0.8
  0
ENDBLK
  5
24BF
  8
0
 62
     7
  0
BLOCK
  8
0
 62
     7
  2
*U142
 70
     1
 10
0.0
 20
0.0
 30
0.0
  3
*U142
  1

  0
TEXT
  5
24C1
  8
0
 62
     2
 10
4678.8974785914233507
 20
958.4985626445851494
 30
0.0
 40
50.0
  1
150
 41
0.8
  0
ENDBLK
  5
24C3
  8
0
 62
     7
  0
BLOCK
  8
0
 62
     7
  2
*U143
 70
     1
 10
0.0
 20
0.0
 30
0.0
  3
*U143
  1

  0
TEXT
  5
24C5
  8
0
 62
     2
 10
4452.5876359428002615
 20
2157.5524203627142015
 30
0.0
 40
50.0
  1
235
 41
0.8
  0
ENDBLK
  5
24C7
  8
0
 62
     7
  0
ENDSEC
  0
SECTION
  2
ENTITIES
  0
TEXT
  5
1299
  8
0
  6
CONTINUOUS
 62
     3
 10
6413.5239942857288042
 20
29.2501000000047497
 30
0.0
 40
120.0
  1
3-RO-17181
 41
0.8
  0
LINE
  5
129A
  8
0
 62
     3
 10
759.4269336258292924
 20
4715.4535145172840203
 30
0.0
 11
1137.381235080363922
 21
4715.4535145172840203
 31
0.0
  0
LINE
  5
129B
  8
0
 62
     3
 10
2056.4721441713049899
 20
4715.4535145172840203
 30
0.0
 11
2434.4266896258341148
 21
4715.4535145172840203
 31
0.0
  0
LINE
  5
129C
  8
0
 62
     3
 10
1206.4721441714209504
 20
4715.4535145172840203
 30
0.0
 11
1584.4266896258920951
 21
4715.4535145173431374
 31
0.0
  0
LINE
  5
129D
  8
0
 62
     3
 10
1609.4266896259500754
 20
4715.4535145172840203
 30
0.0
 11
1987.3812350804219022
 21
4715.4535145172840203
 31
0.0
  0
LINE
  5
129E
  8
0
 62
     3
 10
734.4269336258292924
 20
4715.4535145172840203
 30
0.0
 11
416.9266896259504733
 21
4715.4535145172840203
 31
0.0
  0
ARC
  5
129F
  8
0
 62
     3
 10
416.9266896259504733
 20
4705.4535145172849298
 30
0.0
 40
10.0
 50
90.0
 51
180.0
  0
LINE
  5
12A0
  8
0
 62
     3
 10
406.9266896259504733
 20
4705.4535145172849298
 30
0.0
 11
406.9266896259504733
 21
4245.453270517288729
 31
0.0
  0
LINE
  5
12A1
  8
0
 62
     3
 10
2786.9265676259528846
 20
4245.4535145172849298
 30
0.0
 11
2786.9265676259528846
 21
4705.4535145172849298
 31
0.0
  0
ARC
  5
12A2
  8
0
 62
     3
 10
2776.9265676259528846
 20
4705.4535145172849298
 30
0.0
 40
10.0
 50
0.0
 51
90.0
  0
LINE
  5
12A3
  8
0
 62
     3
 10
2776.9265676259528846
 20
4715.4535145172840203
 30
0.0
 11
2459.4266896258341148
 21
4715.4535145172840203
 31
0.0
  0
LINE
  5
12A4
  8
0
  6
CONTINUOUS
 62
     7
 10
5909.2857142857392319
 20
580.0003399999694693
 30
0.0
 11
3669.2857142857387771
 21
580.0003399999694693
 31
0.0
  0
LINE
  5
12A5
  8
0
  6
CONTINUOUS
 62
     2
 10
3669.2857142857387771
 20
340.0002999999560984
 30
0.0
 11
7809.2857142857392319
 21
340.000339999969583
 31
0.0
  0
LINE
  5
12A6
  8
0
  6
CONTINUOUS
 62
     2
 10
3669.2857142857387771
 20
460.0003399999695262
 30
0.0
 11
7809.2857142857392319
 21
460.0003399999695262
 31
0.0
  0
LINE
  5
12A7
  8
0
  6
CONTINUOUS
 62
     2
 10
3669.2857142857387771
 20
220.0003199999918877
 30
0.0
 11
7809.2857142857392319
 21
220.0003399999696114
 31
0.0
  0
LINE
  5
12A8
  8
0
  6
CONTINUOUS
 62
     2
 10
5909.2857142857392319
 20
100.0003399999695972
 30
0.0
 11
3669.2857142857387771
 21
100.0001799999735965
 31
0.0
  0
LINE
  5
12A9
  8
0
  6
CONTINUOUS
 62
     2
 10
5669.2857142857392319
 20
100.0002999999559989
 30
0.0
 11
5669.2857142857392319
 21
580.0003399999694693
 31
0.0
  0
LINE
  5
12AA
  8
0
  6
CONTINUOUS
 62
     3
 10
3719.2857142857387771
 20
360.0003999999607913
 30
0.0
 11
3819.2857142857387771
 21
360.0003999999607913
 31
0.0
  0
LINE
  5
12AB
  8
0
  6
CONTINUOUS
 62
     3
 10
3819.2857142857387771
 20
360.0003999999607913
 30
0.0
 11
3769.2857142857387771
 21
446.6029400000115857
 31
0.0
  0
LINE
  5
12AC
  8
0
  6
CONTINUOUS
 62
     3
 10
3769.2857142857387771
 20
446.6029400000115857
 30
0.0
 11
3719.2857142857387771
 21
360.0003600000055144
 31
0.0
  0
LINE
  5
12AD
  8
0
  6
CONTINUOUS
 62
     7
 10
3669.2857142857387771
 20
0.000339999969583
 30
0.0
 11
3669.2857142857387771
 21
580.0003399999694693
 31
0.0
  0
LINE
  5
12AE
  8
0
  6
CONTINUOUS
 62
     2
 10
5269.2857142857392319
 20
100.0002999999559989
 30
0.0
 11
5269.2857142857392319
 21
580.0003399999694693
 31
0.0
  0
LINE
  5
12AF
  8
0
  6
CONTINUOUS
 62
     2
 10
4869.2857142857392319
 20
100.0002600000006936
 30
0.0
 11
4869.2857142857392319
 21
580.0003399999694693
 31
0.0
  0
LINE
  5
12B0
  8
0
  6
CONTINUOUS
 62
     2
 10
4469.2857142857392319
 20
100.0002199999870953
 30
0.0
 11
4469.2857142857392319
 21
580.0003399999694693
 31
0.0
  0
LINE
  5
12B1
  8
0
  6
CONTINUOUS
 62
     2
 10
3869.2857142857387771
 20
100.0001799999735965
 30
0.0
 11
3869.2857142857387771
 21
580.0003399999694693
 31
0.0
  0
TEXT
  5
12B2
  8
0
  6
CONTINUOUS
 62
     3
 10
4503.8157342857448384
 20
20.5690999999642408
 30
0.0
 40
60.0
  1
REVISIONS
  0
TEXT
  5
12B3
  8
0
  6
CONTINUOUS
 62
     3
 10
4509.2857142857392319
 20
140.0002000000094995
 30
0.0
 40
40.0
  1
APPROVED
  0
TEXT
  5
12B4
  8
0
  6
CONTINUOUS
 62
     3
 10
3731.6714113780758453
 20
140.0001799999735965
 30
0.0
 40
40.0
  1
NO,
  0
LINE
  5
12B5
  8
0
  6
CONTINUOUS
 62
     3
 10
3719.2857142857387771
 20
240.0003199999918877
 30
0.0
 11
3819.2857142857387771
 21
240.0003199999918877
 31
0.0
  0
LINE
  5
12B6
  8
0
  6
CONTINUOUS
 62
     3
 10
3819.2857142857387771
 20
240.0003199999918877
 30
0.0
 11
3769.2857142857387771
 21
326.6028599999845028
 31
0.0
  0
LINE
  5
12B7
  8
0
  6
CONTINUOUS
 62
     3
 10
3769.2857142857387771
 20
326.6028599999845028
 30
0.0
 11
3719.2857142857387771
 21
240.0002799999784031
 31
0.0
  0
TEXT
  5
12B8
  8
0
  6
CONTINUOUS
 62
     3
 10
3949.2857142857387771
 20
140.0001599999959012
 30
0.0
 40
40.0
  1
DESCRIPTION
  0
TEXT
  5
12B9
  8
0
  6
CONTINUOUS
 62
     3
 10
4929.2857142857401413
 20
140.0002000000094995
 30
0.0
 40
40.0
  1
CHECKED
  0
TEXT
  5
12BA
  8
0
  6
CONTINUOUS
 62
     3
 10
5329.2857142857392319
 20
140.0002799999782894
 30
0.0
 40
40.0
  1
REVISED
  0
TEXT
  5
12BB
  8
0
  6
CONTINUOUS
 62
     3
 10
5709.2857142857392319
 20
140.0002799999782894
 30
0.0
 40
40.0
  1
DATE
  0
LINE
  5
12BC
  8
0
  6
CONTINUOUS
 62
     3
 10
3719.2857142857387771
 20
480.0003999999606776
 30
0.0
 11
3819.2857142857387771
 21
480.0003999999606776
 31
0.0
  0
LINE
  5
12BD
  8
0
  6
CONTINUOUS
 62
     3
 10
3819.2857142857387771
 20
480.0003999999606776
 30
0.0
 11
3769.2857142857387771
 21
566.602940000011472
 31
0.0
  0
LINE
  5
12BE
  8
0
  6
CONTINUOUS
 62
     3
 10
3769.2857142857387771
 20
566.602940000011472
 30
0.0
 11
3719.2857142857387771
 21
480.0003600000054007
 31
0.0
  0
LINE
  5
12BF
  8
0
  6
CONTINUOUS
 62
     2
 10
6859.2857142857392319
 20
580.0002600000007078
 30
0.0
 11
6859.2857142857392319
 21
220.0003399999696114
 31
0.0
  0
LINE
  5
12C0
  8
0
  6
CONTINUOUS
 62
     7
 10
5909.2850942857330665
 20
1100.0002999999560416
 30
0.0
 11
5909.2857142857392319
 21
0.000339999969583
 31
0.0
  0
TEXT
  5
12C1
  8
0
  6
CONTINUOUS
 62
     3
 10
6879.2857142857401413
 20
260.0003199999919161
 30
0.0
 40
40.0
  1
DRAWN BY
  0
TEXT
  5
12C2
  8
0
  6
CONTINUOUS
 62
     3
 10
5929.2857142857401413
 20
260.000339999969583
 30
0.0
 40
40.0
  1
CHECKED BY
  0
TEXT
  5
12C3
  8
0
  6
CONTINUOUS
 62
     3
 10
5929.2857142857401413
 20
160.0003399999696114
 30
0.0
 40
40.0
  1
DWG.NO,
  0
TEXT
  5
12C4
  8
0
  6
CONTINUOUS
 62
     3
 10
7355.3619178411327084
 20
251.9075237654614909
 30
0.0
 40
60.0
  1
M.TAKAHASHI
 41
0.7
  0
TEXT
  5
12C5
  8
0
  6
CONTINUOUS
 62
     3
 10
6879.2857142857401413
 20
380.000339999969583
 30
0.0
 40
40.0
  1
DESIGNED BY
  0
LINE
  5
12C6
  8
0
  6
CONTINUOUS
 62
     7
 10
7809.2857142857392319
 20
1100.0003799999828971
 30
0.0
 11
5909.2857142857392319
 21
1100.0003799999828971
 31
0.0
  0
LINE
  5
12C7
  8
0
  6
CONTINUOUS
 62
     2
 10
5909.2857142857392319
 20
900.0003799999831244
 30
0.0
 11
7809.2857142857392319
 21
900.0003799999831244
 31
0.0
  0
LINE
  5
12C8
  8
0
  6
CONTINUOUS
 62
     2
 10
5909.2857142857392319
 20
580.0003399999694693
 30
0.0
 11
7809.2857142857392319
 21
580.0003399999694693
 31
0.0
  0
TEXT
  5
12C9
  8
0
  6
CONTINUOUS
 62
     3
 10
6456.8168121696216986
 20
484.8637616562190829
 30
0.0
 40
60.0
  1
1/20
  0
TEXT
  5
12CA
  8
0
  6
CONTINUOUS
 62
     3
 10
5929.2857142857401413
 20
380.000339999969583
 30
0.0
 40
40.0
  1
APPROVED BY
  0
TEXT
  5
12CB
  8
0
  6
CONTINUOUS
 62
     3
 10
5929.2857142857401413
 20
500.0002999999559847
 30
0.0
 40
40.0
  1
SCALE
  0
TEXT
  5
12CC
  8
0
  6
CONTINUOUS
 62
     3
 10
6879.2857142857401413
 20
500.0002999999559847
 30
0.0
 40
40.0
  1
DATE
  0
DIMENSION
  5
12CD
  8
0
  6
CONTINUOUS
 62
     2
  2
*D95
 10
3288.7796840766332025
 20
4955.4535145172867487
 30
0.0
 11
3243.779684076634112
 21
4535.4535145172849298
 31
0.0
 70
     0
 13
2846.9266896259509849
 23
4115.4535145172849298
 33
0.0
 14
2846.9266896259509849
 24
4955.4535145172849298
 34
0.0
 50
90.0000049992448936
1001
ACAD
1000
DSTYLE
1002
{
1070
   340
1005
F
1002
}
  0
DIMENSION
  5
12CE
  8
0
  6
CONTINUOUS
 62
     2
  2
*D96
 10
3283.6033764783878723
 20
3145.2527918371520173
 30
0.0
 11
3238.6033764783878723
 21
2130.252791837148834
 31
0.0
 70
     0
 13
3102.6431056243018247
 23
1115.2527918371490614
 33
0.0
 14
2846.9266896259509849
 24
3145.252791837148834
 34
0.0
 50
90.0
1001
ACAD
1000
DSTYLE
1002
{
1070
   340
1005
F
1002
}
  0
LINE
  5
12CF
  8
0
 62
     3
 10
2846.9266896259509849
 20
2059.5007028371910565
 30
0.0
 11
346.9266896259504733
 21
2059.5007028371910565
 31
0.0
  0
LINE
  5
12D0
  8
0
 62
     3
 10
2846.9266896259509849
 20
1465.2530358372021055
 30
0.0
 11
346.9266896259504733
 21
1465.252685262471914
 31
0.0
  0
LINE
  5
12D1
  8
0
 62
     3
 10
346.9266896259504733
 20
1985.2527918371490614
 30
0.0
 11
2846.9266896259509849
 21
1985.2527918371490614
 31
0.0
  0
LINE
  5
12D2
  8
0
 62
     3
 10
2846.9266896259509849
 20
1893.7047345580069759
 30
0.0
 11
346.9266896259504733
 21
1893.7047345580069759
 31
0.0
  0
LINE
  5
12D3
  8
0
 62
     3
 10
446.9266896259504733
 20
1170.2527918371490614
 30
0.0
 11
2746.9266896259509849
 21
1170.2527918371490614
 31
0.0
  0
LINE
  5
12D4
  8
0
 62
     3
 10
446.9266896259504733
 20
1115.2527918371490614
 30
0.0
 11
446.9266896259504733
 21
1465.2527918371490614
 31
0.0
  0
LINE
  5
12D5
  8
壁
 62
     1
 10
155.5048146259505017
 20
1065.2527918371490614
 30
0.0
 11
205.5048146259505017
 21
1115.2527918371490614
 31
0.0
  0
LINE
  5
12D6
  8
壁
 62
     5
 10
346.9266896259504733
 20
1115.2527918371490614
 30
0.0
 11
86.8404736259253553
 21
1115.2527918371490614
 31
0.0
  0
LINE
  5
12D7
  8
壁
 62
     1
 10
84.7938766259467229
 20
1065.2527918371490614
 30
0.0
 11
134.7938766259466945
 21
1115.2527918371490614
 31
0.0
  0
LINE
  5
12D8
  8
壁
 62
     1
 10
296.9266896259504733
 20
1065.2527918371490614
 30
0.0
 11
346.9266896259504733
 21
1115.2527918371490614
 31
0.0
  0
LINE
  5
12D9
  8
壁
 62
     1
 10
226.2157516259466945
 20
1065.2527918371490614
 30
0.0
 11
276.2157516259467229
 21
1115.2527918371490614
 31
0.0
  0
LINE
  5
12DA
  8
0
 62
     3
 10
406.9265676259528277
 20
1985.2527918371490614
 30
0.0
 11
406.9265676259528277
 21
2039.5007028371910565
 31
0.0
  0
DIMENSION
  5
12DB
  8
0
  6
CONTINUOUS
 62
     2
  2
*D97
 10
1722.1114340722199358
 20
1115.2527918371490614
 30
0.0
 11
1677.1114340722199358
 21
1215.2527918371479245
 31
0.0
 70
     0
 13
1796.9265676259531119
 23
1315.2527918371490614
 33
0.0
 14
1683.9957742185799816
 24
1115.2527918371490614
 34
0.0
 50
270.0
1001
ACAD
1000
DSTYLE
1002
{
1070
   340
1005
F
1002
}
  0
LINE
  5
12DC
  8
0
 62
     3
 10
2746.9266896259509849
 20
1115.2527918371490614
 30
0.0
 11
2746.9266896259509849
 21
1465.2530358372021055
 31
0.0
  0
INSERT
  5
12DD
  8
0
 62
     7
  2
*U106
 10
0.0
 20
0.0
 30
0.0
1001
ACAD
1000
DSTYLE
1002
{
1070
   340
1005
F
1002
}
  0
LINE
  5
12DE
  8
壁
 62
     1
 10
2970.9653884032750284
 20
1065.2527918371490614
 30
0.0
 11
3020.9653884032741189
 21
1115.2527918371490614
 31
0.0
  0
LINE
  5
12DF
  8
壁
 62
     1
 10
2900.2544504032698569
 20
1065.2527918371490614
 30
0.0
 11
2950.2544504032698569
 21
1115.2527918371490614
 31
0.0
  0
LINE
  5
12E0
  8
壁
 62
     1
 10
3041.6763254032698569
 20
1065.2527918371490614
 30
0.0
 11
3091.6763254032712211
 21
1115.2527918371490614
 31
0.0
  0
LINE
  5
12E1
  8
0
 62
     3
 10
346.9266896259504733
 20
4775.4535145172849298
 30
0.0
 11
2846.9266896259509849
 21
4775.4535145172849298
 31
0.0
  0
DIMENSION
  5
12E2
  8
0
  6
CONTINUOUS
 62
     2
  2
*D98
 10
1846.9266896259500754
 20
5209.1312653836794198
 30
0.0
 11
1096.9266896259500754
 21
5254.1312653836803293
 31
0.0
 70
     0
 13
346.9266896259504733
 23
4955.4535145172849298
 33
0.0
 14
1846.9266896259500754
 24
5069.531864789489191
 34
0.0
1001
ACAD
1000
DSTYLE
1002
{
1070
   340
1005
F
1002
}
  0
DIMENSION
  5
12E3
  8
0
  6
CONTINUOUS
 62
     2
  2
*D99
 10
2846.9266896259509849
 20
3456.0311746010561365
 30
0.0
 11
1596.9266896259500754
 21
3501.0311746010561365
 31
0.0
 70
     0
 13
346.9266896259504733
 23
3145.252791837148834
 33
0.0
 14
2846.9266896259509849
 24
3145.252791837148834
 34
0.0
1001
ACAD
1000
DSTYLE
1002
{
1070
   340
1005
F
1002
}
  0
LINE
  5
12E4
  8
壁
 62
     1
 10
440.1142346112756059
 20
4955.4535145172849298
 30
0.0
 11
519.3862076112418436
 21
5034.7254875172511674
 31
0.0
  0
LINE
  5
12E5
  8
壁
 62
     1
 10
370.3886036259355024
 20
4955.4535145172849298
 30
0.0
 11
449.6605766259598909
 21
5034.7254875172511674
 31
0.0
  0
LINE
  5
12E6
  8
壁
 62
     1
 10
1166.8758342204380369
 20
4955.4535145172849298
 30
0.0
 11
1246.147807220462937
 21
5034.7254875172511674
 31
0.0
  0
LINE
  5
12E7
  8
壁
 62
     1
 10
844.3583306259241681
 20
4955.4535145172849298
 30
0.0
 11
923.6298146259505302
 21
5034.7254875172511674
 31
0.0
  0
LINE
  5
12E8
  8
壁
 62
     1
 10
759.5053026259411126
 20
4955.4535145172849298
 30
0.0
 11
838.7772756259654443
 21
5034.7254875172511674
 31
0.0
  0
LINE
  5
12E9
  8
壁
 62
     1
 10
589.7997366259222645
 20
4955.4535145172849298
 30
0.0
 11
669.0717096259468235
 21
5034.7254875172511674
 31
0.0
  0
LINE
  5
12EA
  8
壁
 62
     1
 10
674.6522756259654443
 20
4955.4535145172849298
 30
0.0
 11
753.924248625931682
 21
5034.7254875172511674
 31
0.0
  0
LINE
  5
12EB
  8
壁
 62
     1
 10
524.966773611260578
 20
4955.4535145172849298
 30
0.0
 11
604.2387466112850234
 21
5034.7254875172511674
 31
0.0
  0
LINE
  5
12EC
  8
壁
 62
     1
 10
1082.0232952204530648
 20
4955.4535145172849298
 30
0.0
 11
1161.2952682204779649
 21
5034.7254875172511674
 31
0.0
  0
LINE
  5
12ED
  8
壁
 62
     1
 10
927.4451252351282164
 20
4955.4535145172849298
 30
0.0
 11
1006.7170982351519797
 21
5034.7254875172511674
 31
0.0
  0
LINE
  5
12EE
  8
壁
 62
     1
 10
1012.2981532351110445
 20
4955.4535145172849298
 30
0.0
 11
1091.5696372351380887
 21
5034.7254875172511674
 31
0.0
  0
LINE
  5
12EF
  8
壁
 62
     1
 10
1486.2673912351019681
 20
4955.4535145172849298
 30
0.0
 11
1565.5388752351279891
 21
5034.7254875172511674
 31
0.0
  0
LINE
  5
12F0
  8
壁
 62
     1
 10
1316.5613362351430169
 20
4955.4535145172849298
 30
0.0
 11
1395.833309235167917
 21
5034.7254875172511674
 31
0.0
  0
LINE
  5
12F1
  8
壁
 62
     1
 10
1231.7087972351580447
 20
4955.4535145172849298
 30
0.0
 11
1310.980770235124055
 21
5034.7254875172511674
 31
0.0
  0
LINE
  5
12F2
  8
壁
 62
     1
 10
1401.4143632351190263
 20
4955.4535145172849298
 30
0.0
 11
1480.6863362351430169
 21
5034.7254875172511674
 31
0.0
  0
LINE
  5
12F3
  8
壁
 62
     1
 10
1654.2072138443470521
 20
4955.4535145172849298
 30
0.0
 11
1733.4786978443150929
 21
5034.7254875172511674
 31
0.0
  0
LINE
  5
12F4
  8
壁
 62
     1
 10
1569.3541858443059027
 20
4955.4535145172849298
 30
0.0
 11
1648.6261588443298933
 21
5034.7254875172511674
 31
0.0
  0
DIMENSION
  5
12F5
  8
0
  6
CONTINUOUS
 62
     2
  2
*D100
 10
2846.9265676259528846
 20
5209.1312653836794198
 30
0.0
 11
2346.9266286259521621
 21
5254.1312653836803293
 31
0.0
 70
     0
 13
1846.9266896259500754
 23
5069.531864789489191
 33
0.0
 14
2846.9265676259528846
 24
4955.4535145172849298
 34
0.0
1001
ACAD
1000
DSTYLE
1002
{
1070
   340
1005
F
1070
    75
1070
     1
1002
}
  0
LINE
  5
12F6
  8
壁
 62
     1
 10
2469.1342336166999303
 20
4955.4535145172849298
 30
0.0
 11
2548.4062066167248304
 21
5034.7254875172511674
 31
0.0
  0
LINE
  5
12F7
  8
壁
 62
     1
 10
2149.7431656020348782
 20
4955.4535145172849298
 30
0.0
 11
2229.0151386020011159
 21
5034.7254875172511674
 31
0.0
  0
LINE
  5
12F8
  8
壁
 62
     1
 10
1925.4393646314269972
 20
4955.4535145172849298
 30
0.0
 11
2004.711337631393917
 21
5034.7254875172511674
 31
0.0
  0
LINE
  5
12F9
  8
壁
 62
     1
 10
1995.1649956167088931
 20
4955.4535145172849298
 30
0.0
 11
2074.4369686166760403
 21
5034.7254875172511674
 31
0.0
  0
LINE
  5
12FA
  8
壁
 62
     1
 10
2080.0175346167520729
 20
4955.4535145172849298
 30
0.0
 11
2159.2895076167192201
 21
5034.7254875172511674
 31
0.0
  0
LINE
  5
12FB
  8
壁
 62
     1
 10
2384.2812066167248304
 20
4955.4535145172849298
 30
0.0
 11
2463.5531796166901586
 21
5034.7254875172511674
 31
0.0
  0
LINE
  5
12FC
  8
壁
 62
     1
 10
2234.5957046020189409
 20
4955.4535145172849298
 30
0.0
 11
2313.867677602043841
 21
5034.7254875172511674
 31
0.0
  0
LINE
  5
12FD
  8
壁
 62
     1
 10
2299.4286676166811958
 20
4955.4535145172849298
 30
0.0
 11
2378.7006406167060959
 21
5034.7254875172511674
 31
0.0
  0
LINE
  5
12FE
  8
壁
 62
     1
 10
2721.9270842259279561
 20
4955.4535145172849298
 30
0.0
 11
2801.1985682258969064
 21
5034.7254875172511674
 31
0.0
  0
LINE
  5
12FF
  8
壁
 62
     1
 10
2637.074056225944787
 20
4955.4535145172849298
 30
0.0
 11
2716.3460292259119342
 21
5034.7254875172511674
 31
0.0
  0
LINE
  5
1300
  8
壁
 62
     1
 10
2553.9872616167422166
 20
4955.4535145172849298
 30
0.0
 11
2633.2587456167088931
 21
5034.7254875172511674
 31
0.0
  0
ARC
  5
1301
  8
0
  6
CONTINUOUS
 62
     2
 10
2642.1339239934459329
 20
1137.0907661812959759
 30
0.0
 40
14.8827453453314806
 50
358.1805313400848831
 51
119.6972733027229054
  0
ARC
  5
1302
  8
0
  6
CONTINUOUS
 62
     2
 10
2671.8844078027759679
 20
1136.1457004866099396
 30
0.0
 40
14.8827453453365806
 50
178.1805313400849968
 51
299.6972733027229197
  0
ARC
  5
1303
  8
0
  6
CONTINUOUS
 62
     2
 10
2686.4865793066569495
 20
1758.6768381881408914
 30
0.0
 40
14.8827453453328804
 50
323.5835825222400786
 51
85.1003244878983196
  0
ARC
  5
1304
  8
0
  6
CONTINUOUS
 62
     2
 10
2710.4395759006729349
 20
1741.0065696496749297
 30
0.0
 40
14.8827453453234302
 50
143.583582522240107
 51
265.1003244878983196
  0
ARC
  5
1305
  8
0
  6
CONTINUOUS
 62
     2
 10
2721.051856817909993
 20
2030.0176312421679086
 30
0.0
 40
14.8827453453268799
 50
323.5835825222400786
 51
85.1003244878983196
  0
ARC
  5
1306
  8
0
  6
CONTINUOUS
 62
     2
 10
2745.0048534119268879
 20
2012.3473627037019469
 30
0.0
 40
14.8827453453308198
 50
143.583582522240107
 51
265.1003244878983196
  0
ARC
  5
1307
  8
0
 62
     3
 10
426.9265676259528846
 20
2039.5007028371910565
 30
0.0
 40
20.0
 50
90.0
 51
180.0
  0
ARC
  5
1308
  8
0
 62
     3
 10
2766.9268116259481758
 20
2039.5007028371910565
 30
0.0
 40
20.0
 50
0.0
 51
90.0
  0
LINE
  5
1309
  8
0
 62
     3
 10
2786.9268116259481758
 20
1985.2527918371490614
 30
0.0
 11
2786.9268116259481758
 21
2039.5007028371910565
 31
0.0
  0
LINE
  5
130A
  8
壁
 62
     5
 10
2846.9266896259509849
 20
1115.2527918371490614
 30
0.0
 11
3102.6431056243018247
 21
1115.2527918371490614
 31
0.0
  0
LINE
  5
130B
  8
0
 62
     3
 10
734.4266896259505302
 20
4665.4535145172849298
 30
0.0
 11
499.4266896259504733
 21
4665.4535145172849298
 31
0.0
  0
ARC
  5
130C
  8
0
 62
     3
 10
499.4266896259504733
 20
4655.4535145172849298
 30
0.0
 40
10.0
 50
90.0
 51
180.0
  0
LINE
  5
130D
  8
0
 62
     3
 10
489.4266896259504733
 20
4655.4535145172849298
 30
0.0
 11
489.4266896259504733
 21
4370.453270517288729
 31
0.0
  0
ARC
  5
130E
  8
0
 62
     3
 10
499.4266896259504733
 20
4370.453270517288729
 30
0.0
 40
10.0
 50
180.0
 51
270.0
  0
LINE
  5
130F
  8
0
 62
     3
 10
499.4266896259504733
 20
4360.4532705172896385
 30
0.0
 11
2694.4265676259528846
 21
4360.4532705172896385
 31
0.0
  0
ARC
  5
1310
  8
0
 62
     3
 10
2694.4265676259528846
 20
4370.453270517288729
 30
0.0
 40
10.0
 50
270.0
 51
0.0
  0
LINE
  5
1311
  8
0
 62
     3
 10
2704.4265676259528846
 20
4370.453270517288729
 30
0.0
 11
2704.4265676259528846
 21
4655.4535145172849298
 31
0.0
  0
ARC
  5
1312
  8
0
 62
     3
 10
2694.4265676259528846
 20
4655.4535145172849298
 30
0.0
 40
10.0
 50
0.0
 51
90.0
  0
LINE
  5
1313
  8
0
 62
     3
 10
2694.4265676259528846
 20
4665.4535145172849298
 30
0.0
 11
2459.4266896259509849
 21
4665.4535145172849298
 31
0.0
  0
LINE
  5
1314
  8
0
 62
     3
 10
1153.9266896258920951
 20
4665.4535145172849298
 30
0.0
 11
759.4266896259505302
 21
4665.4535145172849298
 31
0.0
  0
LINE
  5
1315
  8
0
 62
     3
 10
1584.4266896259500754
 20
4665.4535145172849298
 30
0.0
 11
1179.9266896259500754
 21
4665.4535145172849298
 31
0.0
  0
LINE
  5
1316
  8
0
 62
     3
 10
2003.9266896258338875
 20
4665.4535145172849298
 30
0.0
 11
1609.4266896259500754
 21
4665.4535145172849298
 31
0.0
  0
ARC
  5
1317
  8
0
 62
     3
 10
2766.9265676259528846
 20
4245.4535145172849298
 30
0.0
 40
20.0000000000004015
 50
270.0000059730804765
 51
0.0
  0
LINE
  5
1318
  8
0
 62
     3
 10
2766.9265697114169598
 20
4225.4535145172849298
 30
0.0
 11
426.9266917114146054
 21
4225.4532705172896385
 31
0.0
  0
ARC
  5
1319
  8
0
 62
     3
 10
426.9266896259504733
 20
4245.453270517288729
 30
0.0
 40
20.0000000000001101
 50
180.0
 51
270.0000059730804765
  0
LINE
  5
131A
  8
0
 62
     3
 10
2434.4266896259509849
 20
4665.4535145172849298
 30
0.0
 11
2029.9266896258338875
 21
4665.4535145172849298
 31
0.0
  0
LINE
  5
131B
  8
0
  6
CONTINUOUS
 62
     3
 10
2846.9266896259509849
 20
4955.4535145172849298
 30
0.0
 11
346.9266896259504733
 21
4955.4535145172849298
 31
0.0
  0
LINE
  5
131C
  8
0
  6
CONTINUOUS
 62
     3
 10
346.9266896259504733
 20
4955.4535145172849298
 30
0.0
 11
346.9266896259504733
 21
4115.4535145172849298
 31
0.0
  0
LINE
  5
131D
  8
0
  6
CONTINUOUS
 62
     3
 10
346.9266896259504733
 20
4115.4535145172849298
 30
0.0
 11
517.7881791723192464
 21
4115.4535145172849298
 31
0.0
  0
ARC
  5
131E
  8
0
  6
CONTINUOUS
 62
     3
 10
517.7881791723192464
 20
4165.4535145172849298
 30
0.0
 40
50.0000000000218279
 50
270.0
 51
292.6960549459383856
  0
ARC
  5
131F
  8
0
  6
CONTINUOUS
 62
     3
 10
766.9266948619042523
 20
3574.3916324364258799
 30
0.0
 40
591.4237438726532901
 50
67.1305740698180813
 51
112.8694259301819045
  0
ARC
  5
1320
  8
0
  6
CONTINUOUS
 62
     3
 10
1016.0652105514890309
 20
4165.4535145172267221
 30
0.0
 40
49.9999999999837215
 50
247.303945054061586
 51
270.0
  0
LINE
  5
1321
  8
0
  6
CONTINUOUS
 62
     3
 10
1016.0652105514890309
 20
4115.4535145172849298
 30
0.0
 11
1347.7881791723189053
 21
4115.4535145172849298
 31
0.0
  0
ARC
  5
1322
  8
0
  6
CONTINUOUS
 62
     3
 10
1347.7881791723189053
 20
4165.4535145172849298
 30
0.0
 40
50.0000000000181828
 50
270.0
 51
292.6960549459383856
  0
ARC
  5
1323
  8
0
  6
CONTINUOUS
 62
     3
 10
1596.9266948619040249
 20
3569.5800345007451142
 30
0.0
 40
595.8600502918430948
 50
67.3103813761021712
 51
112.6896186238978004
  0
ARC
  5
1324
  8
0
  6
CONTINUOUS
 62
     3
 10
1846.0652105514889172
 20
4165.4535145172267221
 30
0.0
 40
49.9999999999837215
 50
247.303945054061586
 51
270.0
  0
LINE
  5
1325
  8
0
  6
CONTINUOUS
 62
     3
 10
1846.0652105514889172
 20
4115.4535145172849298
 30
0.0
 11
2177.7881791723189053
 21
4115.4535145172849298
 31
0.0
  0
ARC
  5
1326
  8
0
  6
CONTINUOUS
 62
     3
 10
2177.7881791723189053
 20
4165.4535145172849298
 30
0.0
 40
50.0000000000181828
 50
270.0
 51
292.6960549459383856
  0
ARC
  5
1327
  8
0
  6
CONTINUOUS
 62
     3
 10
2426.9266948619051618
 20
3568.0653978463960811
 30
0.0
 40
597.2577519476835732
 50
67.3664297207863711
 51
112.6335702792136004
  0
ARC
  5
1328
  8
0
  6
CONTINUOUS
 62
     3
 10
2676.0652105514891446
 20
4165.4535145172267221
 30
0.0
 40
49.9999999999837215
 50
247.303945054061586
 51
270.0
  0
LINE
  5
1329
  8
0
  6
CONTINUOUS
 62
     3
 10
2676.0652105514891446
 20
4115.4535145172849298
 30
0.0
 11
2846.9266896259509849
 21
4115.4535145172849298
 31
0.0
  0
LINE
  5
132A
  8
0
  6
CONTINUOUS
 62
     3
 10
2846.9266896259509849
 20
4115.4535145172849298
 30
0.0
 11
2846.9266896259509849
 21
4955.4535145172849298
 31
0.0
  0
DIMENSION
  5
132B
  8
0
  6
CONTINUOUS
 62
     2
  2
*D87
 10
1596.9266948617910202
 20
3869.914364868715893
 30
0.0
 11
1631.8004753980781061
 21
4023.6684010951421442
 31
0.0
 70
   132
  1
R595.7
 15
1568.2635153072149024
 25
4164.7635246327281493
 35
0.0
 40
0.0
1001
ACAD
1000
DSTYLE
1002
{
1070
   340
1005
F
1002
}
  0
LINE
  5
132C
  8
0
 62
     1
 10
1347.7881791723189053
 20
1985.2527918371490614
 30
0.0
 11
1347.7881791723189053
 21
1893.7047345580069759
 31
0.0
  0
LINE
  5
132D
  8
0
 62
     1
 10
1016.0652105516049915
 20
1984.0938952352739761
 30
0.0
 11
1016.0652105516049915
 21
1893.7047345580069759
 31
0.0
  0
LINE
  5
132E
  8
0
 62
     1
 10
517.7881791723192464
 20
1985.2527918371490614
 30
0.0
 11
517.7881791723192464
 21
1893.7047345580069759
 31
0.0
  0
LINE
  5
132F
  8
0
 62
     1
 10
2676.0652105516060146
 20
1984.0938952352739761
 30
0.0
 11
2676.0652105516060146
 21
1893.7047345580069759
 31
0.0
  0
LINE
  5
1330
  8
0
 62
     1
 10
2177.7881791723189053
 20
1985.2527918371490614
 30
0.0
 11
2177.7881791723189053
 21
1893.7047345580069759
 31
0.0
  0
LINE
  5
1331
  8
0
 62
     1
 10
1846.0652105516051051
 20
1984.0938952352739761
 30
0.0
 11
1846.0652105516051051
 21
1893.7047345580069759
 31
0.0
  0
DIMENSION
  5
1332
  8
0
  6
CONTINUOUS
 62
     2
  2
*D88
 10
4801.5165262104710564
 20
638.4985626445850357
 30
0.0
 11
4381.5165262104710564
 21
683.4985626445850357
 31
0.0
 70
     0
 13
3961.5165262104710564
 23
1087.9381950653039439
 33
0.0
 14
4801.5165262104710564
 24
1087.9381950653039439
 34
0.0
1001
ACAD
1000
DSTYLE
1002
{
1070
   340
1005
F
1002
}
  0
DIMENSION
  5
1333
  8
0
  6
CONTINUOUS
 62
     2
  2
*D89
 10
4801.5165262104710564
 20
788.4985626445850357
 30
0.0
 11
4481.5165262104710564
 21
833.4985626445851494
 31
0.0
 70
     0
 13
4161.5165262104710564
 23
1115.2527918371490614
 33
0.0
 14
4801.5165262104710564
 24
1115.2527918371490614
 34
0.0
1001
ACAD
1000
DSTYLE
1002
{
1070
   340
1005
F
1002
}
  0
DIMENSION
  5
1334
  8
0
  6
CONTINUOUS
 62
     2
  2
*D90
 10
3731.5165262114260258
 20
1985.2390388371429708
 30
0.0
 11
3686.5165262114260258
 21
1550.2459153371451066
 31
0.0
 70
     0
  1
870
 13
4161.5165262104710564
 23
1115.2527918371490614
 33
0.0
 14
3971.5165202104249147
 24
1985.2390388371420613
 34
0.0
 50
90.0
1001
ACAD
1000
DSTYLE
1002
{
1070
   340
1005
F
1002
}
  0
DIMENSION
  5
1335
  8
0
  6
CONTINUOUS
 62
     2
  2
*D91
 10
3581.5165262114269353
 20
1115.2527918371490614
 30
0.0
 11
3536.5165262114251163
 21
1740.2527969289219527
 31
0.0
 70
     0
 13
4359.766194210445974
 23
2365.2528020206950714
 33
0.0
 14
4161.5165262104710564
 24
1115.2527918371490614
 34
0.0
 50
90.0
1001
ACAD
1000
DSTYLE
1002
{
1070
   340
1005
F
1002
}
  0
DIMENSION
  5
1336
  8
0
  6
CONTINUOUS
 62
     2
  2
*D92
 10
3881.5165262114260258
 20
1465.2527918371490614
 30
0.0
 11
3836.5165262114260258
 21
1290.2527918371479245
 31
0.0
 70
     0
 13
4161.5165262104710564
 23
1115.2527918371490614
 33
0.0
 14
4151.5165262104701469
 24
1465.2527918371490614
 34
0.0
 50
90.0
1001
ACAD
1000
DSTYLE
1002
{
1070
   340
1005
F
1002
}
  0
DIMENSION
  5
1337
  8
0
  6
CONTINUOUS
 62
     2
  2
*D93
 10
5063.8784481795973988
 20
1315.2526698371520979
 30
0.0
 11
5018.8784481795955799
 21
1215.2527308371491017
 31
0.0
 70
     0
 13
4801.5165262104710564
 23
1115.2527918371490614
 33
0.0
 14
4938.1617654972942546
 24
1315.252669837150961
 34
0.0
 50
90.0
1001
ACAD
1000
DSTYLE
1002
{
1070
   340
1005
F
1002
}
  0
DIMENSION
  5
1338
  8
0
  6
CONTINUOUS
 62
     2
  2
*D94
 10
4801.5165262104710564
 20
3304.0081922453250627
 30
0.0
 11
4711.5165262104710564
 21
3349.0081922453250627
 31
0.0
 70
     0
 13
4621.5165262104710564
 23
3145.252791837148834
 33
0.0
 14
4801.5165262104710564
 24
3304.0081922453250627
 34
0.0
1001
ACAD
1000
DSTYLE
1002
{
1070
   340
1005
F
1002
}
  0
LINE
  5
1339
  8
壁
 62
     5
 10
4801.5162102104513906
 20
3145.2526968371821567
 30
0.0
 11
4801.5165262104710564
 21
3606.9903408371610567
 31
0.0
  0
LINE
  5
133A
  8
壁
 62
     1
 10
4801.5165262104710564
 20
3328.8256995462579653
 30
0.0
 11
4871.5157942104851827
 21
3398.8249665462649318
 31
0.0
  0
LINE
  5
133B
  8
壁
 62
     1
 10
4801.5165262104710564
 20
1185.9634858371568953
 30
0.0
 11
4871.5157942104851827
 21
1255.9628748371610527
 31
0.0
  0
LINE
  5
133C
  8
壁
 62
     1
 10
4801.5165262104710564
 20
1115.2527918372070417
 30
0.0
 11
4871.5157942104851827
 21
1185.2521818371599238
 31
0.0
  0
LINE
  5
133D
  8
壁
 62
     1
 10
4801.5165262104710564
 20
3045.9829255462391302
 30
0.0
 11
4871.5157942104851827
 21
3115.9821935462528018
 31
0.0
  0
LINE
  5
133E
  8
壁
 62
     1
 10
4801.5165262104710564
 20
2904.5615395462377819
 30
0.0
 11
4871.5157942104851827
 21
2974.5610505462391302
 31
0.0
  0
LINE
  5
133F
  8
壁
 62
     1
 10
4801.5165262104710564
 20
2975.2722325462377739
 30
0.0
 11
4871.5157942104851827
 21
3045.271744546248101
 31
0.0
  0
LINE
  5
1340
  8
壁
 62
     1
 10
4801.5165262104710564
 20
3258.115005546249904
 30
0.0
 11
4871.5157942104851827
 21
3328.1142735462640303
 31
0.0
  0
LINE
  5
1341
  8
壁
 62
     1
 10
4801.5165262104710564
 20
3116.693619546248101
 30
0.0
 11
4871.5157942104851827
 21
3186.692886546254158
 31
0.0
  0
LINE
  5
1342
  8
壁
 62
     1
 10
4801.5165262104710564
 20
3187.4043125462490025
 30
0.0
 11
4871.5157942104851827
 21
3257.4035805462631288
 31
0.0
  0
LINE
  5
1343
  8
壁
 62
     1
 10
4801.5165262104710564
 20
3540.9575355462729931
 30
0.0
 11
4871.5157942104851827
 21
3610.9570465462747961
 31
0.0
  0
LINE
  5
1344
  8
壁
 62
     1
 10
4801.5165262104710564
 20
3399.5361485462640303
 30
0.0
 11
4871.5157942104851827
 21
3469.5356605462729931
 31
0.0
  0
LINE
  5
1345
  8
壁
 62
     1
 10
4801.5165262104710564
 20
3470.2468415462649318
 30
0.0
 11
4871.5157942104851827
 21
3540.2463535462738946
 31
0.0
  0
LINE
  5
1346
  8
壁
 62
     1
 10
4444.3602762104710564
 20
1065.2527918371490614
 30
0.0
 11
4494.3602762104701469
 21
1115.2527918371490614
 31
0.0
  0
LINE
  5
1347
  8
壁
 62
     1
 10
4161.5165262104710564
 20
1065.2527918371490614
 30
0.0
 11
4211.5165262104710564
 21
1115.2527918371490614
 31
0.0
  0
LINE
  5
1348
  8
壁
 62
     1
 10
4373.6493392104748636
 20
1065.2527918371490614
 30
0.0
 11
4423.6493392104739542
 21
1115.2527918371490614
 31
0.0
  0
LINE
  5
1349
  8
壁
 62
     1
 10
4232.2274642104748636
 20
1065.2527918371490614
 30
0.0
 11
4282.2274642104748636
 21
1115.2527918371490614
 31
0.0
  0
LINE
  5
134A
  8
壁
 62
     1
 10
4302.9384012104710564
 20
1065.2527918371490614
 30
0.0
 11
4352.9384012104710564
 21
1115.2527918371490614
 31
0.0
  0
INSERT
  5
134B
  8
0
 62
     7
  2
*U107
 10
0.0
 20
0.0
 30
0.0
1001
ACAD
1000
DSTYLE
1002
{
1070
   340
1005
F
1002
}
  0
LINE
  5
134C
  8
0
  6
PHANTOM2
 62
     4
 10
446.9266896259504733
 20
1465.2527918371490614
 30
0.0
 11
1021.9266896259499617
 21
1170.2527918371490614
 31
0.0
  0
LINE
  5
134D
  8
0
  6
PHANTOM2
 62
     4
 10
446.9266896259504733
 20
1170.2527778141659383
 30
0.0
 11
1021.9266896259499617
 21
1465.2527918371490614
 31
0.0
  0
LINE
  5
134E
  8
0
 62
     3
 10
1021.9266896259499617
 20
1170.2527918371490614
 30
0.0
 11
1021.9266896259499617
 21
1465.2527918371490614
 31
0.0
  0
LINE
  5
134F
  8
0
  6
PHANTOM2
 62
     4
 10
1021.9266896259499617
 20
1465.2527918371490614
 30
0.0
 11
1596.9266896259500754
 21
1170.2527918371490614
 31
0.0
  0
LINE
  5
1350
  8
0
  6
PHANTOM2
 62
     4
 10
1021.9266896259499617
 20
1170.2527778141659383
 30
0.0
 11
1596.9266896259500754
 21
1465.2527918371490614
 31
0.0
  0
LINE
  5
1351
  8
0
 62
     3
 10
1596.9266896259500754
 20
1170.2527918371490614
 30
0.0
 11
1596.9266896259500754
 21
1465.2527918371490614
 31
0.0
  0
LINE
  5
1352
  8
0
  6
PHANTOM2
 62
     4
 10
1596.9266896259500754
 20
1465.2527918371490614
 30
0.0
 11
2171.9266896259509849
 21
1170.2527918371490614
 31
0.0
  0
LINE
  5
1353
  8
0
  6
PHANTOM2
 62
     4
 10
1596.9266896259500754
 20
1170.2527778141659383
 30
0.0
 11
2171.9266896259509849
 21
1465.2527918371490614
 31
0.0
  0
LINE
  5
1354
  8
0
 62
     3
 10
2171.9266896259509849
 20
1170.2527918371490614
 30
0.0
 11
2171.9266896259509849
 21
1465.2527918371490614
 31
0.0
  0
LINE
  5
1355
  8
0
  6
PHANTOM2
 62
     4
 10
2171.9266896259509849
 20
1465.2527918371490614
 30
0.0
 11
2746.9266896259509849
 21
1170.2527918371490614
 31
0.0
  0
LINE
  5
1356
  8
0
  6
PHANTOM2
 62
     4
 10
2171.9266896259509849
 20
1170.2527778141659383
 30
0.0
 11
2746.9266896259509849
 21
1465.2527918371490614
 31
0.0
  0
TEXT
  5
1357
  8
0
  6
CONTINUOUS
 62
     3
 10
7190.2591436670627445
 20
491.341743787226676
 30
0.0
 40
59.9999999993999893
  1
2009. 9. 1
  0
TEXT
  5
1358
  8
0
  6
CONTINUOUS
 62
     7
 10
5953.4264154984839479
 20
952.2267199904889594
 30
0.0
 40
99.9999999989999964
  1
MITSUBISHI CHEMICAL AQUA SOLUTIONS CO.,LTD.
 41
0.51
  0
INSERT
  5
137E
  8
0
 62
     7
  2
A$C014B713B
 10
746.9266896259505302
 20
3142.252791837148834
 30
0.0
  0
INSERT
  5
137F
  8
0
 62
     7
  2
A$C014B713B
 10
1596.9266896259500754
 20
3142.252791837148834
 30
0.0
  0
INSERT
  5
1380
  8
0
 62
     7
  2
A$C014B713B
 10
2446.9266896259500754
 20
3142.252791837148834
 30
0.0
  0
INSERT
  5
1381
  8
0
 62
     7
  2
*U108
 10
0.0
 20
0.0
 30
0.0
1001
ACAD
1000
DSTYLE
1002
{
1070
   340
1005
F
1002
}
  0
CIRCLE
  5
1382
  8
0
  6
CONTINUOUS
 62
     2
 10
2094.5266990250679555
 20
2977.5897111560921076
 30
0.0
 40
50.0
  0
TEXT
  5
1383
  8
0
  6
CONTINUOUS
 62
     2
 10
2077.383841882210163
 20
2947.5897111560921076
 30
0.0
 40
60.0
  1
4
 41
0.8
 72
     1
 11
2094.5266990250679555
 21
2977.5897111560921076
 31
0.0
 73
     2
  0
ARC
  5
1384
  8
0
  6
CONTINUOUS
 62
     2
 10
2368.2634659592299613
 20
2843.4637073681810762
 30
0.0
 40
21.261064779047981
 50
286.7292792953895741
 51
48.2460212607567129
  0
ARC
  5
1385
  8
0
  6
CONTINUOUS
 62
     2
 10
2380.5034587780251059
 20
2802.7413047137670219
 30
0.0
 40
21.2610647790441014
 50
106.7292792953896026
 51
228.2460212607566916
  0
INSERT
  5
1386
  8
0
 62
     7
  2
*U109
 10
0.0
 20
0.0
 30
0.0
1001
ACAD
1000
DSTYLE
1002
{
1070
   340
1005
F
1002
}
  0
CIRCLE
  5
1387
  8
0
  6
CONTINUOUS
 62
     2
 10
3016.2901415498349706
 20
2354.3893299293699783
 30
0.0
 40
49.9999999999799911
  0
TEXT
  5
1388
  8
0
  6
CONTINUOUS
 62
     2
 10
3000.2901415498349706
 20
2324.3893299293699783
 30
0.0
 40
60.0
  1
5
 41
0.8
 72
     1
 11
3016.2901415498349706
 21
2354.3893299293699783
 31
0.0
 73
     2
  0
INSERT
  5
1389
  8
0
 62
     7
  2
*U110
 10
0.0
 20
0.0
 30
0.0
1001
ACAD
1000
DSTYLE
1002
{
1070
   340
1005
F
1002
}
  0
CIRCLE
  5
138A
  8
0
  6
CONTINUOUS
 62
     2
 10
1945.537457146099996
 20
2977.5897111560921076
 30
0.0
 40
50.0
  0
TEXT
  5
138B
  8
0
  6
CONTINUOUS
 62
     2
 10
1921.537457146099996
 20
2947.5897111560921076
 30
0.0
 40
60.0
  1
11
 41
0.8
 72
     1
 11
1945.537457146099996
 21
2977.5897111560921076
 31
0.0
 73
     2
  0
LINE
  5
138C
  8
0
  6
CONTINUOUS
 62
     2
 10
2657.0091658981400542
 20
1136.6182333339240813
 30
0.0
 11
2978.8711884010122048
 21
1421.8771924776960986
 31
0.0
  0
LINE
  5
138D
  8
0
  6
CONTINUOUS
 62
     2
 10
2698.4630776036651696
 20
1749.8417039188789204
 30
0.0
 11
2970.0335336801358608
 21
1861.2857004395918921
 31
0.0
  0
CIRCLE
  5
138E
  8
0
  6
CONTINUOUS
 62
     2
 10
3016.2901415498349706
 20
1455.0407559961890911
 30
0.0
 40
50.0
  0
TEXT
  5
138F
  8
0
  6
CONTINUOUS
 62
     2
 10
2982.0044272641212046
 20
1425.0407559961900006
 30
0.0
 40
60.0
  1
17
 41
0.8
 72
     1
 11
3016.2901415498349706
 21
1455.0407559961890911
 31
0.0
 73
     2
  0
LINE
  5
1390
  8
0
  6
CONTINUOUS
 62
     2
 10
2733.0283551149191226
 20
2021.1824969729059376
 30
0.0
 11
2968.9014480435289443
 21
2100.5580676275999394
 31
0.0
  0
CIRCLE
  5
1391
  8
0
  6
CONTINUOUS
 62
     2
 10
3016.2901415498349706
 20
1880.267961326753948
 30
0.0
 40
50.0
  0
TEXT
  5
1392
  8
0
  6
CONTINUOUS
 62
     2
 10
2983.1472844069771782
 20
1850.267961326753948
 30
0.0
 40
60.0
  1
16
 41
0.8
 72
     1
 11
3016.2901415498349706
 21
1880.267961326753948
 31
0.0
 73
     2
  0
CIRCLE
  5
1393
  8
0
  6
CONTINUOUS
 62
     2
 10
3016.2901415498349706
 20
2116.5052218491910025
 30
0.0
 40
49.999999999999801
  0
TEXT
  5
1394
  8
0
  6
CONTINUOUS
 62
     2
 10
3010.5758558355491914
 20
2086.5052218491910025
 30
0.0
 40
60.0
  1
1
 41
0.8
 72
     1
 11
3016.2901415498349706
 21
2116.5052218491910025
 31
0.0
 73
     2
  0
INSERT
  5
1395
  8
0
 62
     7
  2
*U111
 10
0.0
 20
0.0
 30
0.0
1001
ACAD
1000
DSTYLE
1002
{
1070
   340
1005
F
1002
}
  0
TEXT
  5
1396
  8
0
  6
CONTINUOUS
 62
     2
 10
3000.2901415498349706
 20
3050.4309814923331032
 30
0.0
 40
60.0
  1
2
 41
0.8
 72
     1
 11
3016.2901415498349706
 21
3080.4309814923331032
 31
0.0
 73
     2
  0
CIRCLE
  5
1397
  8
0
  6
CONTINUOUS
 62
     2
 10
3016.2901415498349706
 20
3080.4309814923331032
 30
0.0
 40
49.9999999999980105
  0
CIRCLE
  5
1398
  8
0
  6
CONTINUOUS
 62
     2
 10
3016.2901415498349706
 20
2971.4179444763581159
 30
0.0
 40
49.9999999998000035
  0
TEXT
  5
1399
  8
0
  6
CONTINUOUS
 62
     2
 10
3000.2901415498349706
 20
2941.4179444763581159
 30
0.0
 40
60.0
  1
3
 41
0.8
 72
     1
 11
3016.2901415498349706
 21
2971.4179444763581159
 31
0.0
 73
     2
  0
INSERT
  5
139A
  8
0
 62
     7
  2
*U112
 10
0.0
 20
0.0
 30
0.0
1001
ACAD
1000
DSTYLE
1002
{
1070
   340
1005
F
1002
}
  0
LINE
  5
139B
  8
壁
 62
     1
 10
4801.5165262104710564
 20
2763.140395546273794
 30
0.0
 11
4871.5157942104851827
 21
2833.1396635462879203
 31
0.0
  0
LINE
  5
139C
  8
壁
 62
     1
 10
4801.5165262104710564
 20
2621.719009546271991
 30
0.0
 11
4871.5157942104851827
 21
2691.718520546273794
 31
0.0
  0
LINE
  5
139D
  8
壁
 62
     1
 10
4801.5165262104710564
 20
2692.4297025462728925
 30
0.0
 11
4871.5157942104851827
 21
2762.4292145462818553
 31
0.0
  0
LINE
  5
139E
  8
壁
 62
     1
 10
4801.5165262104710564
 20
2833.8510895462818553
 30
0.0
 11
4871.5157942104851827
 21
2903.8503565462888218
 31
0.0
  0
LINE
  5
139F
  8
壁
 62
     1
 10
4801.5165262104710564
 20
2480.2978655462497954
 30
0.0
 11
4871.5157942104851827
 21
2550.2971335462639217
 31
0.0
  0
LINE
  5
13A0
  8
壁
 62
     1
 10
4801.5165262104710564
 20
2338.8764795462479924
 30
0.0
 11
4871.5157942104851827
 21
2408.8759905462497954
 31
0.0
  0
LINE
  5
13A1
  8
壁
 62
     1
 10
4801.5165262104710564
 20
2409.5871725462488939
 30
0.0
 11
4871.5157942104851827
 21
2479.586684546259221
 31
0.0
  0
LINE
  5
13A2
  8
壁
 62
     1
 10
4801.5165262104710564
 20
2551.008559546259221
 30
0.0
 11
4871.5157942104851827
 21
2621.0078265462648233
 31
0.0
  0
LINE
  5
13A3
  8
壁
 62
     1
 10
4801.5165262104710564
 20
2197.455335546284914
 30
0.0
 11
4871.5157942104851827
 21
2267.4546035462408327
 31
0.0
  0
LINE
  5
13A4
  8
壁
 62
     1
 10
4801.5165262104710564
 20
2056.033949546283111
 30
0.0
 11
4871.5157942104851827
 21
2126.033460546284914
 31
0.0
  0
LINE
  5
13A5
  8
壁
 62
     1
 10
4801.5165262104710564
 20
2126.7446425462840125
 30
0.0
 11
4871.5157942104851827
 21
2196.7441545462938848
 31
0.0
  0
LINE
  5
13A6
  8
壁
 62
     1
 10
4801.5165262104710564
 20
2268.1660295462929753
 30
0.0
 11
4871.5157942104851827
 21
2338.1652965462999418
 31
0.0
  0
LINE
  5
13A7
  8
壁
 62
     1
 10
4801.5165262104710564
 20
1914.6128055462609154
 30
0.0
 11
4871.5157942104851827
 21
1984.6120735462750417
 31
0.0
  0
LINE
  5
13A8
  8
壁
 62
     1
 10
4801.5165262104710564
 20
1773.1914195462591124
 30
0.0
 11
4871.5157942104851827
 21
1843.1909305462609154
 31
0.0
  0
LINE
  5
13A9
  8
壁
 62
     1
 10
4801.5165262104710564
 20
1843.9021125462600139
 30
0.0
 11
4871.5157942104851827
 21
1913.9016245462701136
 31
0.0
  0
LINE
  5
13AA
  8
壁
 62
     1
 10
4801.5165262104710564
 20
1985.3234995462701136
 30
0.0
 11
4871.5157942104851827
 21
2055.3227665462759433
 31
0.0
  0
TEXT
  5
13AF
  8
0
  6
CONTINUOUS
 62
     3
 10
7348.6701603582469033
 20
373.8013180616543991
 30
0.0
 40
60.0
  1
Y.NAGASAKA
 41
0.7
  0
INSERT
  5
13BB
  8
0
 62
     7
  2
*U113
 10
0.0
 20
0.0
 30
0.0
1001
ACAD
1000
DSTYLE
1002
{
1070
   340
1005
F
1002
}
  0
INSERT
  5
13BC
  8
0
 62
     7
  2
*U114
 10
0.0
 20
0.0
 30
0.0
1001
ACAD
1000
DSTYLE
1002
{
1070
   340
1005
F
1002
}
  0
DIMENSION
  5
13BD
  8
0
  6
CONTINUOUS
 62
     2
  2
*D101
 10
2846.9266896259509849
 20
542.0510823739458601
 30
0.0
 11
2096.9266896259500754
 21
587.0510823739459738
 31
0.0
 70
     0
 13
1346.9266896259500754
 23
1115.2527918371490614
 33
0.0
 14
2846.9266896259509849
 24
1115.2527918371490614
 34
0.0
1001
ACAD
1000
DSTYLE
1002
{
1070
   340
1005
F
1002
}
  0
INSERT
  5
13BE
  8
0
 62
     7
  2
*U115
 10
0.0
 20
0.0
 30
0.0
1001
ACAD
1000
DSTYLE
1002
{
1070
   340
1005
F
1002
}
  0
DIMENSION
  5
13BF
  8
0
  6
CONTINUOUS
 62
     2
  2
*D102
 10
2846.9266896259509849
 20
686.2693032458190601
 30
0.0
 11
2646.9266896259509849
 21
731.2693032458191738
 31
0.0
 70
     0
 13
2446.9266896259500754
 23
1115.2527918371490614
 33
0.0
 14
2846.9266896259509849
 24
1115.2527918371490614
 34
0.0
1001
ACAD
1000
DSTYLE
1002
{
1070
   340
1005
F
1002
}
  0
DIMENSION
  5
13C0
  8
0
  6
CONTINUOUS
 62
     2
  2
*D103
 10
2446.9266896259500754
 20
686.2693032458190601
 30
0.0
 11
2346.9266896259500754
 21
731.2693032458191738
 31
0.0
 70
     0
 13
2246.9266896259509849
 23
1115.2527918371490614
 33
0.0
 14
2446.9266896259500754
 24
1115.2527918371490614
 34
0.0
1001
ACAD
1000
DSTYLE
1002
{
1070
   340
1005
F
1002
}
  0
INSERT
  5
13C1
  8
0
 62
     7
  2
*U116
 10
0.0
 20
0.0
 30
0.0
1001
ACAD
1000
DSTYLE
1002
{
1070
   340
1005
F
1002
}
  0
CIRCLE
  5
13C2
  8
0
  6
CONTINUOUS
 62
     2
 10
3016.2901415498349706
 20
1691.2781139401479322
 30
0.0
 40
49.9999999999799911
  0
TEXT
  5
13C3
  8
0
  6
CONTINUOUS
 62
     2
 10
2982.0044272641212046
 20
1661.2781139401490691
 30
0.0
 40
60.0
  1
10
 41
0.8
 72
     1
 11
3016.2901415498349706
 21
1691.2781139401479322
 31
0.0
 73
     2
  0
TEXT
  5
13C4
  8
0
  6
CONTINUOUS
 62
     2
 10
5016.6429117011139169
 20
1581.479100592551049
 30
0.0
 40
50.0
  1
電源コンセント AC100V 450VA
 41
0.7
  0
LINE
  5
13C5
  8
0
  6
CONTINUOUS
 62
     2
 10
5732.7014457684117588
 20
1565.897621489885978
 30
0.0
 11
5014.8763120598741807
 21
1565.897621489885978
 31
0.0
  0
TEXT
  5
13C6
  8
0
  6
CONTINUOUS
 62
     2
 10
5100.8846930492436513
 20
1498.8134390243790222
 30
0.0
 40
50.0
  1
D種接地要 （別途工事）
 41
0.8
  0
DIMENSION
  5
13D3
  8
0
  6
CONTINUOUS
 62
     2
  2
*D104
 10
4651.5165262104701469
 20
938.4985626445850357
 30
0.0
 11
4543.8919819970606113
 21
983.4985626445851494
 31
0.0
 70
   128
 13
4601.5165262104701469
 23
1115.2527918371490614
 33
0.0
 14
4651.5165262104701469
 24
1115.2527918371490614
 34
0.0
1001
ACAD
1000
DSTYLE
1002
{
1070
   340
1005
F
1002
}
  0
DIMENSION
  5
13D4
  8
0
  6
CONTINUOUS
 62
     2
  2
*D105
 10
4801.5165262104710564
 20
938.4985626445850357
 30
0.0
 11
4726.5165262104701469
 21
983.4985626445851494
 31
0.0
 70
     0
 13
4651.5165262104701469
 23
1115.2527918371490614
 33
0.0
 14
4801.5165262104710564
 24
1115.2527918371490614
 34
0.0
1001
ACAD
1000
DSTYLE
1002
{
1070
   340
1005
F
1070
    75
1070
     1
1002
}
  0
ARC
  5
13D5
  8
0
  6
CONTINUOUS
 62
     2
 10
2734.3847559767309576
 20
2210.6183214706247782
 30
0.0
 40
14.8827453453328804
 50
323.5835825222400786
 51
85.1003244878983196
  0
ARC
  5
13D6
  8
0
  6
CONTINUOUS
 62
     2
 10
2758.3377525707478526
 20
2192.9480529321590438
 30
0.0
 40
14.8827453453234302
 50
143.583582522240107
 51
265.1003244878983196
  0
LINE
  5
13D7
  8
0
  6
CONTINUOUS
 62
     2
 10
2746.3612542737400872
 20
2201.7831872013630345
 30
0.0
 11
2966.9073699453151676
 21
2236.7617896183510311
 31
0.0
  0
CIRCLE
  5
13D8
  8
0
  6
CONTINUOUS
 62
     2
 10
3016.2901415498349706
 20
2244.5938946134410799
 30
0.0
 40
50.0
  0
TEXT
  5
13D9
  8
0
  6
CONTINUOUS
 62
     2
 10
2982.0044272641212046
 20
2214.5938946134410799
 30
0.0
 40
60.0
  1
18
 41
0.8
 72
     1
 11
3016.2901415498349706
 21
2244.5938946134410799
 31
0.0
 73
     2
  0
INSERT
  5
1407
  8
0
  2
A$C51C070DC
 10
1796.9266518244398867
 20
1240.0909666123920942
 30
0.0
  0
INSERT
  5
140A
  8
0
  2
A$C5756186B
 10
1316.926562042965088
 20
1115.2527481277938932
 30
0.0
  0
INSERT
  5
140F
  8
0
  2
A$C4E7F6CC5
 10
2226.9267851252229775
 20
1115.2528348239140996
 30
0.0
  0
INSERT
  5
1410
  8
0
  2
A$C4E7F6CC5
 10
2426.9267851252229775
 20
1115.2528348239140996
 30
0.0
  0
LINE
  5
1419
  8
0
  6
CONTINUOUS
 62
     3
 10
2846.9266896259509849
 20
1115.2527918371490614
 30
0.0
 11
346.9266896259504733
 21
1115.2527918371490614
 31
0.0
  0
LINE
  5
141A
  8
0
  6
CONTINUOUS
 62
     3
 10
346.9266896259504733
 20
1115.2527918371490614
 30
0.0
 11
346.9266896259504733
 21
3145.252791837148834
 31
0.0
  0
LINE
  5
141B
  8
0
  6
CONTINUOUS
 62
     3
 10
346.9266896259504733
 20
3145.252791837148834
 30
0.0
 11
2846.9266896259509849
 21
3145.252791837148834
 31
0.0
  0
LINE
  5
141C
  8
0
  6
CONTINUOUS
 62
     3
 10
2846.9266896259509849
 20
3145.252791837148834
 30
0.0
 11
2846.9266896259509849
 21
1115.2527918371490614
 31
0.0
  0
INSERT
  5
141F
  8
0
  2
A$C24BB75B8
 10
1796.9267292059960255
 20
4890.7123208232796969
 30
0.0
  0
INSERT
  5
1428
  8
0
  2
A$C1AEA2420
 10
4768.0647374709960786
 20
1270.2528204425470904
 30
0.0
  0
INSERT
  5
1429
  8
0
  2
A$C5756186B
 10
4571.5163986274856143
 20
1115.2527481277938932
 30
0.0
  0
INSERT
  5
142A
  8
0
  2
A$C4E7F6CC5
 10
4631.516621709743049
 20
1115.2528348239140996
 30
0.0
  0
INSERT
  5
142D
  8
0
 62
     3
  2
A$C3FE03FDA
 10
1133.4267381669480983
 20
2296.7527935625407736
 30
0.0
  0
INSERT
  5
142E
  8
0
 62
     3
  2
A$C3FE03FDA
 10
1983.4267381667739301
 20
2296.7527935625407736
 30
0.0
  0
TEXT
  5
1453
  8
0
  6
CONTINUOUS
 62
     2
 10
1461.2254986813059077
 20
1547.6006196297239512
 30
0.0
 40
49.9999999998000035
  1
（別途工事）
 41
0.8
  0
LINE
  5
1454
  8
0
  6
CONTINUOUS
 62
     2
 10
1430.6445917126259246
 20
1609.201248210913036
 30
0.0
 11
1763.5314928113950828
 21
1609.201248210913036
 31
0.0
  0
TEXT
  5
1455
  8
0
  6
CONTINUOUS
 62
     2
 10
1430.6445917126259246
 20
1628.5389191064170973
 30
0.0
 40
49.9999999998000035
  1
電源コンセント
 41
0.8
  0
LINE
  5
1456
  8
0
  6
CONTINUOUS
 62
     2
 10
662.3264121626853012
 20
933.2111185192478615
 30
0.0
 11
1183.7783756612329853
 21
933.2111185192478615
 31
0.0
  0
TEXT
  5
1457
  8
0
  6
CONTINUOUS
 62
     2
 10
680.4302900781622157
 20
871.3693590684561059
 30
0.0
 40
49.999999999999801
  1
FL+50mm（別途工事）
 41
0.7
  0
TEXT
  5
1458
  8
0
  6
CONTINUOUS
 62
     2
 10
695.9032838318380527
 20
949.9486716722603887
 30
0.0
 40
49.999999999999801
  1
排水40Aソケット止
 41
0.8
  0
TEXT
  5
1459
  8
0
  6
CONTINUOUS
 62
     2
 10
2907.9332623553927988
 20
680.1021230631158687
 30
0.0
 40
49.999999999999801
  1
FL+100mm（別途工事）
 41
0.7
  0
LINE
  5
145A
  8
0
  6
CONTINUOUS
 62
     2
 10
2881.1709163297200575
 20
745.6625644486630335
 30
0.0
 11
3456.4897375192967957
 21
745.6625644486630335
 31
0.0
  0
TEXT
  5
145B
  8
0
  6
CONTINUOUS
 62
     2
 10
2938.6611182534247746
 20
757.7488824186730199
 30
0.0
 40
49.999999999999801
  1
給湯 15A バルブ止
 41
0.8
  0
TEXT
  5
145C
  8
0
  6
CONTINUOUS
 62
     2
 10
2932.268252745619975
 20
952.5488649570617099
 30
0.0
 40
50.0
  1
給水 15A バルブ止
 41
0.8
  0
TEXT
  5
145D
  8
0
  6
CONTINUOUS
 62
     2
 10
2921.7600078737600597
 20
874.9021056015626527
 30
0.0
 40
50.0
  1
FL+100mm（別途工事）
 41
0.7
  0
LINE
  5
145E
  8
0
  6
CONTINUOUS
 62
     2
 10
2894.7630593999060693
 20
940.4625469871097039
 30
0.0
 11
3445.0131705859680551
 21
940.4625469871097039
 31
0.0
  0
TEXT
  5
145F
  8
壁
  6
CONTINUOUS
 62
     2
 10
2968.86560290656098
 20
1217.1921403134469983
 30
0.0
 40
50.0
  1
F.L
 41
0.8
  0
LINE
  5
1460
  8
壁
  6
CONTINUOUS
 62
     2
 10
2950.2544504032698569
 20
1198.5119620486509575
 30
0.0
 11
3064.2117151251300129
 21
1198.5119620486509575
 31
0.0
  0
LINE
  5
1461
  8
壁
  6
CONTINUOUS
 62
     2
 10
2950.2544504032698569
 20
1154.2240443371699712
 30
0.0
 11
2950.2544504032698569
 21
1198.5119620486509575
 31
0.0
  0
LINE
  5
1462
  8
壁
  6
CONTINUOUS
 62
     2
 10
2927.7544504032698569
 20
1154.2240443371699712
 30
0.0
 11
2972.7544504032698569
 21
1154.2240443371699712
 31
0.0
  0
LINE
  5
1463
  8
壁
  6
CONTINUOUS
 62
     2
 10
2950.2544504032698569
 20
1115.2527918371490614
 30
0.0
 11
2972.7544504032698569
 21
1154.2240443371699712
 31
0.0
  0
LINE
  5
1464
  8
壁
  6
CONTINUOUS
 62
     2
 10
2950.2544504032698569
 20
1115.2527918371490614
 30
0.0
 11
2927.7544504032698569
 21
1154.2240443371699712
 31
0.0
  0
TEXT
  5
146F
  8
壁
  6
CONTINUOUS
 62
     2
 10
4616.2815355404163711
 20
3506.0380940493778326
 30
0.0
 40
49.9999999998000035
  1
壁 面
 41
0.8
  0
LINE
  5
1470
  8
壁
  6
CONTINUOUS
 62
     2
 10
4801.5165262104710564
 20
3490.1204785352460931
 30
0.0
 11
4759.9473854104289785
 21
3466.1204785352460931
 31
0.0
  0
LINE
  5
1471
  8
壁
  6
CONTINUOUS
 62
     2
 10
4801.5165262104710564
 20
3490.1204785352460931
 30
0.0
 11
4759.9473854104289785
 21
3514.1204785352460931
 31
0.0
  0
LINE
  5
1472
  8
壁
  6
CONTINUOUS
 62
     2
 10
4596.1952511217677966
 20
3490.1204785352460931
 30
0.0
 11
4759.9473854104289785
 21
3490.1204785352460931
 31
0.0
  0
LINE
  5
1473
  8
壁
  6
CONTINUOUS
 62
     2
 10
4759.9473854104289785
 20
3514.1204785352460931
 30
0.0
 11
4759.9473854104289785
 21
3466.1204785352460931
 31
0.0
  0
LINE
  5
1474
  8
0
  6
CONTINUOUS
 62
     3
 10
5919.4224555558757856
 20
5164.7999593400745653
 30
0.0
 11
7669.4224555558757856
 21
5164.7999593400745653
 31
0.0
  0
LINE
  5
1475
  8
0
  6
CONTINUOUS
 62
     3
 10
5919.4224555558757856
 20
5084.7999593400736558
 30
0.0
 11
7669.4224555558757856
 21
5084.7999593400736558
 31
0.0
  0
LINE
  5
1476
  8
0
  6
CONTINUOUS
 62
     3
 10
5919.4224555558757856
 20
5004.7999593400745653
 30
0.0
 11
7669.4224555558757856
 21
5004.7999593400745653
 31
0.0
  0
LINE
  5
1477
  8
0
  6
CONTINUOUS
 62
     3
 10
5919.4224555558757856
 20
4924.7999593400745653
 30
0.0
 11
7669.4224555558757856
 21
4924.7999593400745653
 31
0.0
  0
LINE
  5
1478
  8
0
  6
CONTINUOUS
 62
     3
 10
5919.4224555558757856
 20
4844.7999593400745653
 30
0.0
 11
7669.4224555558757856
 21
4844.7999593400745653
 31
0.0
  0
LINE
  5
1479
  8
0
  6
CONTINUOUS
 62
     3
 10
5919.4224555558757856
 20
4764.7999593400736558
 30
0.0
 11
7669.4224555558757856
 21
4764.7999593400736558
 31
0.0
  0
LINE
  5
147A
  8
0
  6
CONTINUOUS
 62
     3
 10
5919.4224555558757856
 20
4684.7999593400736558
 30
0.0
 11
7669.4224555558757856
 21
4684.7999593400736558
 31
0.0
  0
LINE
  5
147B
  8
0
  6
CONTINUOUS
 62
     3
 10
5919.4224555559349028
 20
4604.7999593400736558
 30
0.0
 11
7669.4224555558757856
 21
4604.7999593400736558
 31
0.0
  0
LINE
  5
147C
  8
0
  6
CONTINUOUS
 62
     3
 10
5919.4224555559349028
 20
4524.7999593400736558
 30
0.0
 11
7669.4224555558757856
 21
4524.7999593400736558
 31
0.0
  0
LINE
  5
147D
  8
0
  6
CONTINUOUS
 62
     3
 10
5919.4224555559349028
 20
4444.7999593400736558
 30
0.0
 11
7669.4224555558757856
 21
4444.7999593400736558
 31
0.0
  0
LINE
  5
147E
  8
0
  6
CONTINUOUS
 62
     3
 10
5919.4224555559349028
 20
4364.7999593400736558
 30
0.0
 11
7669.4224555558757856
 21
4364.7999593400736558
 31
0.0
  0
LINE
  5
147F
  8
0
  6
CONTINUOUS
 62
     3
 10
5919.4224555559349028
 20
4284.7999593400736558
 30
0.0
 11
7669.4224555558757856
 21
4284.7999593400736558
 31
0.0
  0
LINE
  5
1480
  8
0
  6
CONTINUOUS
 62
     3
 10
5919.4224555559349028
 20
4204.7999593400736558
 30
0.0
 11
7669.4224555558757856
 21
4204.7999593400736558
 31
0.0
  0
LINE
  5
1481
  8
0
  6
CONTINUOUS
 62
     3
 10
5919.4224555559349028
 20
4124.7999593400745653
 30
0.0
 11
7669.4224555558757856
 21
4124.7999593400745653
 31
0.0
  0
LINE
  5
1482
  8
0
  6
CONTINUOUS
 62
     3
 10
5919.4224555559349028
 20
3964.79995934007502
 30
0.0
 11
7669.4224555558757856
 21
3964.79995934007502
 31
0.0
  0
LINE
  5
1483
  8
0
  6
CONTINUOUS
 62
     3
 10
5919.4224555559349028
 20
4044.7999593400741105
 30
0.0
 11
7669.4224555558757856
 21
4044.7999593400741105
 31
0.0
  0
LINE
  5
1484
  8
0
  6
CONTINUOUS
 62
     3
 10
5919.4224555559349028
 20
3884.79995934007502
 30
0.0
 11
7669.4224555558757856
 21
3884.79995934007502
 31
0.0
  0
LINE
  5
1485
  8
0
  6
CONTINUOUS
 62
     3
 10
5919.4224555559349028
 20
3724.79995934007502
 30
0.0
 11
7669.4224555558757856
 21
3724.79995934007502
 31
0.0
  0
LINE
  5
1486
  8
0
  6
CONTINUOUS
 62
     3
 10
5919.4224555558757856
 20
5244.7999593400736558
 30
0.0
 11
7669.4224555558757856
 21
5244.7999593400736558
 31
0.0
  0
LINE
  5
1487
  8
0
  6
CONTINUOUS
 62
     3
 10
7669.4224555558757856
 20
5244.7999593400736558
 30
0.0
 11
7669.4224555559349028
 21
3724.79995934007502
 31
0.0
  0
TEXT
  5
1488
  8
0
  6
CONTINUOUS
 62
     2
 10
6074.4224555558748762
 20
4859.7999593400736558
 30
0.0
 40
49.9999999999999929
  1
　　鏡
  0
TEXT
  5
1489
  8
0
  6
CONTINUOUS
 62
     2
 10
6074.4224555558748762
 20
4459.7999593400736558
 30
0.0
 40
49.9999999999999929
  1
光電スイッチ
  0
TEXT
  5
148A
  8
0
  6
CONTINUOUS
 62
     2
 10
6074.4224555558748762
 20
4539.7999593400745653
 30
0.0
 40
49.9999999999999929
  1
蛍光灯スイッチ
  0
TEXT
  5
148B
  8
0
  6
CONTINUOUS
 62
     2
 10
6074.4224555558748762
 20
5103.1332926733894055
 30
0.0
 40
49.9999999999999929
  1
シ　ン　ク
  0
TEXT
  5
148C
  8
0
  6
CONTINUOUS
 62
     2
 10
6074.4224555558748762
 20
5019.7999593400736558
 30
0.0
 40
49.9999999999999929
  1
蛍　光　灯
  0
TEXT
  5
148D
  8
0
  6
CONTINUOUS
 62
     2
 10
6074.4224555558748762
 20
4939.7999593400736558
 30
0.0
 40
49.9999999999999929
  1
前面カバー
  0
TEXT
  5
148E
  8
0
  6
CONTINUOUS
 62
     2
 10
6074.4224555558748762
 20
4779.7999593400736558
 30
0.0
 40
49.9999999999999929
  1
逆汚染防止蛇口
  0
TEXT
  5
148F
  8
0
  6
CONTINUOUS
 62
     2
 10
7074.4224555559339933
 20
4299.7999593400745653
 30
0.0
 40
49.9999999999999929
  1
光電スイッチ付
 41
0.8
  0
TEXT
  5
1490
  8
0
  6
CONTINUOUS
 62
     2
 10
7074.4224555558748762
 20
5019.7999593400736558
 30
0.0
 40
49.9999999999999929
  1
LED10W
  0
TEXT
  5
1491
  8
0
  6
CONTINUOUS
 62
     2
 10
6074.4224555559339933
 20
4059.7999593400741105
 30
0.0
 40
49.9999999999999929
  1
ストップバルブ
  0
LINE
  5
1492
  8
0
  6
CONTINUOUS
 62
     3
 10
6044.4224555558757856
 20
3724.79995934007502
 30
0.0
 11
6044.4224555558757856
 21
5244.7999593400736558
 31
0.0
  0
LINE
  5
1493
  8
0
  6
CONTINUOUS
 62
     3
 10
6669.4224555558757856
 20
3724.79995934007502
 30
0.0
 11
6669.4224555558757856
 21
5244.7999593400736558
 31
0.0
  0
LINE
  5
1494
  8
0
  6
CONTINUOUS
 62
     3
 10
6794.4224555558757856
 20
3724.79995934007502
 30
0.0
 11
6794.4224555558757856
 21
5244.7999593400736558
 31
0.0
  0
LINE
  5
1495
  8
0
  6
CONTINUOUS
 62
     3
 10
7044.4224555558757856
 20
3724.79995934007502
 30
0.0
 11
7044.4224555558757856
 21
5244.7999593400736558
 31
0.0
  0
LINE
  5
1496
  8
0
  6
CONTINUOUS
 62
     3
 10
5919.4224555559349028
 20
3724.79995934007502
 30
0.0
 11
5919.4224555559349028
 21
5244.7999593400736558
 31
0.0
  0
TEXT
  5
1497
  8
0
  6
CONTINUOUS
 62
     2
 10
5939.2557888892088158
 20
5179.7999593400736558
 30
0.0
 40
49.9999999999999929
  1
符号
 41
0.8
 72
     4
 11
5981.9224555558757856
 21
5204.7999593400745653
 31
0.0
  0
TEXT
  5
1498
  8
0
  6
CONTINUOUS
 62
     2
 10
6242.2557888892088158
 20
5179.7999593400736558
 30
0.0
 40
49.9999999999999929
  1
名　　　称
 41
0.8
 72
     4
 11
6356.9224555558757856
 21
5204.7999593400745653
 31
0.0
  0
TEXT
  5
1499
  8
0
  6
CONTINUOUS
 62
     2
 10
6689.2557888892088158
 20
5179.7999593400736558
 30
0.0
 40
49.9999999999999929
  1
数量
 41
0.8
 72
     4
 11
6731.9224555558757856
 21
5204.7999593400745653
 31
0.0
  0
TEXT
  5
149A
  8
0
  6
CONTINUOUS
 62
     2
 10
6852.7557888892088158
 20
5179.7999593400736558
 30
0.0
 40
49.9999999999999929
  1
材　質
 41
0.8
 72
     4
 11
6919.4224555558757856
 21
5204.7999593400745653
 31
0.0
  0
TEXT
  5
149B
  8
0
  6
CONTINUOUS
 62
     2
 10
7242.2557888892088158
 20
5179.7999593400736558
 30
0.0
 40
49.9999999999999929
  1
備　　　考
 41
0.8
 72
     4
 11
7356.9224555558757856
 21
5204.7999593400745653
 31
0.0
  0
TEXT
  5
149C
  8
0
  6
CONTINUOUS
 62
     2
 10
5977.160550793971197
 20
5099.7999593400736558
 30
0.0
 40
49.9999999999999929
  1
1
 41
0.8
 72
     4
 11
5981.9224555558757856
 21
5124.7999593400745653
 31
0.0
  0
TEXT
  5
149D
  8
0
  6
CONTINUOUS
 62
     2
 10
5968.589122222541846
 20
5019.7999593400736558
 30
0.0
 40
49.9999999999999929
  1
2
 41
0.8
 72
     4
 11
5981.9224555558757856
 21
5044.7999593400745653
 31
0.0
  0
TEXT
  5
149E
  8
0
  6
CONTINUOUS
 62
     2
 10
5968.589122222541846
 20
4939.7999593400736558
 30
0.0
 40
49.9999999999999929
  1
3
 41
0.8
 72
     4
 11
5981.9224555558757856
 21
4964.7999593400745653
 31
0.0
  0
TEXT
  5
149F
  8
0
  6
CONTINUOUS
 62
     2
 10
5967.6367412701611102
 20
4859.7999593400736558
 30
0.0
 40
49.9999999999999929
  1
4
 41
0.8
 72
     4
 11
5981.9224555558757856
 21
4884.7999593400745653
 31
0.0
  0
TEXT
  5
14A0
  8
0
  6
CONTINUOUS
 62
     2
 10
5968.589122222541846
 20
4779.7999593400736558
 30
0.0
 40
49.9999999999999929
  1
5
 41
0.8
 72
     4
 11
5981.9224555558757856
 21
4804.7999593400736558
 31
0.0
  0
TEXT
  5
14A1
  8
0
  6
CONTINUOUS
 62
     2
 10
5969.5415031749225818
 20
4699.7999593400745653
 30
0.0
 40
49.9999999999999929
  1
6
 41
0.8
 72
     4
 11
5981.9224555558757856
 21
4724.7999593400736558
 31
0.0
  0
TEXT
  5
14A2
  8
0
  6
CONTINUOUS
 62
     2
 10
5968.589122222541846
 20
4619.7999593400736558
 30
0.0
 40
49.9999999999999929
  1
7
 41
0.8
 72
     4
 11
5981.9224555558757856
 21
4644.7999593400736558
 31
0.0
  0
TEXT
  5
14A3
  8
0
  6
CONTINUOUS
 62
     2
 10
5968.5891222226009631
 20
4539.7999593400745653
 30
0.0
 40
49.9999999999999929
  1
8
 41
0.8
 72
     4
 11
5981.9224555559349028
 21
4564.7999593400736558
 31
0.0
  0
TEXT
  5
14A4
  8
0
  6
CONTINUOUS
 62
     2
 10
5969.541503174981699
 20
4459.7999593400736558
 30
0.0
 40
49.9999999999999929
  1
9
 41
0.8
 72
     4
 11
5981.9224555559349028
 21
4484.7999593400736558
 31
0.0
  0
TEXT
  5
14A5
  8
0
  6
CONTINUOUS
 62
     2
 10
5953.3510269845055518
 20
4379.7999593400745653
 30
0.0
 40
49.9999999999999929
  1
10
 41
0.8
 72
     4
 11
5981.9224555559349028
 21
4404.7999593400736558
 31
0.0
  0
TEXT
  5
14A6
  8
0
  6
CONTINUOUS
 62
     2
 10
5961.9224555559339933
 20
4299.7999593400745653
 30
0.0
 40
49.9999999999999929
  1
11
 41
0.8
 72
     4
 11
5981.9224555559349028
 21
4324.7999593400745653
 31
0.0
  0
TEXT
  5
14A7
  8
0
  6
CONTINUOUS
 62
     2
 10
5953.3510269845055518
 20
4219.7999593400745653
 30
0.0
 40
49.9999999999999929
  1
12
 41
0.8
 72
     4
 11
5981.9224555559349028
 21
4244.7999593400736558
 31
0.0
  0
TEXT
  5
14A8
  8
0
  6
CONTINUOUS
 62
     2
 10
5953.3510269845055518
 20
4139.7999593400736558
 30
0.0
 40
49.9999999999999929
  1
13
 41
0.8
 72
     4
 11
5981.9224555559349028
 21
4164.7999593400745653
 31
0.0
  0
TEXT
  5
14A9
  8
0
  6
CONTINUOUS
 62
     2
 10
5952.398646032124816
 20
4059.7999593400741105
 30
0.0
 40
49.9999999999999929
  1
14
 41
0.8
 72
     4
 11
5981.9224555559349028
 21
4084.7999593400741105
 31
0.0
  0
TEXT
  5
14AA
  8
0
  6
CONTINUOUS
 62
     2
 10
5953.3510269845055518
 20
3979.79995934007502
 30
0.0
 40
49.9999999999999929
  1
15
 41
0.8
 72
     4
 11
5981.9224555559349028
 21
4004.79995934007502
 31
0.0
  0
TEXT
  5
14AB
  8
0
  6
CONTINUOUS
 62
     2
 10
5954.3034079368871971
 20
3899.79995934007502
 30
0.0
 40
49.9999999999999929
  1
16
 41
0.8
 72
     4
 11
5981.9224555559349028
 21
3924.79995934007502
 31
0.0
  0
TEXT
  5
14AC
  8
0
  6
CONTINUOUS
 62
     2
 10
5953.3510269845055518
 20
3739.79995934007502
 30
0.0
 40
49.9999999999999929
  1
18
 41
0.8
 72
     4
 11
5981.9224555559349028
 21
3764.79995934007502
 31
0.0
  0
TEXT
  5
14AD
  8
0
  6
CONTINUOUS
 62
     2
 10
6727.160550793971197
 20
5099.7999593400736558
 30
0.0
 40
49.9999999999999929
  1
1
 41
0.8
 72
     4
 11
6731.9224555558757856
 21
5124.7999593400745653
 31
0.0
  0
TEXT
  5
14AE
  8
0
  6
CONTINUOUS
 62
     2
 10
6718.589122222541846
 20
5019.7999593400736558
 30
0.0
 40
49.9999999999999929
  1
3
 41
0.8
 72
     4
 11
6731.9224555558757856
 21
5044.7999593400745653
 31
0.0
  0
TEXT
  5
14AF
  8
0
  6
CONTINUOUS
 62
     2
 10
6718.589122222541846
 20
4939.7999593400736558
 30
0.0
 40
49.9999999999999929
  1
3
 41
0.8
 72
     4
 11
6731.9224555558757856
 21
4964.7999593400745653
 31
0.0
  0
TEXT
  5
14B0
  8
0
  6
CONTINUOUS
 62
     2
 10
6718.589122222541846
 20
4859.7999593400736558
 30
0.0
 40
49.9999999999999929
  1
3
 41
0.8
 72
     4
 11
6731.9224555558757856
 21
4884.7999593400745653
 31
0.0
  0
TEXT
  5
14B1
  8
0
  6
CONTINUOUS
 62
     2
 10
6718.589122222541846
 20
4779.7999593400736558
 30
0.0
 40
49.9999999999999929
  1
3
 41
0.8
 72
     4
 11
6731.9224555558757856
 21
4804.7999593400736558
 31
0.0
  0
TEXT
  5
14B2
  8
0
  6
CONTINUOUS
 62
     2
 10
6727.160550793971197
 20
4539.7999593400745653
 30
0.0
 40
49.9999999999999929
  1
1
 41
0.8
 72
     4
 11
6731.9224555558757856
 21
4564.7999593400736558
 31
0.0
  0
TEXT
  5
14B3
  8
0
  6
CONTINUOUS
 62
     2
 10
6718.589122222541846
 20
4459.7999593400736558
 30
0.0
 40
49.9999999999999929
  1
3
 41
0.8
 72
     4
 11
6731.9224555558757856
 21
4484.7999593400736558
 31
0.0
  0
TEXT
  5
14B4
  8
0
  6
CONTINUOUS
 62
     2
 10
6718.5891222226000536
 20
4299.7999593400745653
 30
0.0
 40
49.9999999999999929
  1
2
 41
0.8
 72
     4
 11
6731.9224555559349028
 21
4324.7999593400745653
 31
0.0
  0
TEXT
  5
14B5
  8
0
  6
CONTINUOUS
 62
     2
 10
6718.5891222226000536
 20
4059.7999593400741105
 30
0.0
 40
49.9999999999999929
  1
2
 41
0.8
 72
     4
 11
6731.9224555559349028
 21
4084.7999593400741105
 31
0.0
  0
TEXT
  5
14B6
  8
0
  6
CONTINUOUS
 62
     2
 10
6800.7557888892088158
 20
5104.7999593400736558
 30
0.0
 40
40.0
  1
アクリル系人工大理石
 41
0.5
 72
     4
 11
6919.4224555558757856
 21
5124.7999593400745653
 31
0.0
  0
TEXT
  5
14B7
  8
0
  6
CONTINUOUS
 62
     2
 10
6074.4224555559339933
 20
3739.79995934007502
 30
0.0
 40
49.9999999999999929
  1
上部パネル
  0
TEXT
  5
14B8
  8
0
  6
CONTINUOUS
 62
     2
 10
6800.755788889267933
 20
3744.7999593400741105
 30
0.0
 40
40.0
  1
アクリル系人工大理石
 41
0.5
 72
     4
 11
6919.4224555559349028
 21
3764.79995934007502
 31
0.0
  0
TEXT
  5
14B9
  8
0
  6
CONTINUOUS
 62
     2
 10
6074.4224555558748762
 20
3819.79995934007502
 30
0.0
 40
49.9999999999999929
  1
下部パネル
  0
TEXT
  5
14BA
  8
0
  6
CONTINUOUS
 62
     2
 10
6800.7557888892088158
 20
3824.79995934007502
 30
0.0
 40
40.0
  1
アクリル系人工大理石
 41
0.5
 72
     4
 11
6919.4224555558757856
 21
3844.79995934007502
 31
0.0
  0
TEXT
  5
14BB
  8
0
  6
CONTINUOUS
 62
     2
 10
6074.4224555558748762
 20
3899.79995934007502
 30
0.0
 40
49.9999999999999929
  1
シンク下部
  0
TEXT
  5
14BC
  8
0
  6
CONTINUOUS
 62
     2
 10
6800.7557888892088158
 20
3904.7999593400741105
 30
0.0
 40
40.0
  1
アクリル系人工大理石
 41
0.5
 72
     4
 11
6919.4224555558757856
 21
3924.79995934007502
 31
0.0
  0
TEXT
  5
14BD
  8
0
  6
CONTINUOUS
 62
     2
 10
6074.4224555559339933
 20
4376.466626006759725
 30
0.0
 40
49.9999999999999929
  1
ミキシングバルブ
  0
TEXT
  5
14BE
  8
0
  6
CONTINUOUS
 62
     2
 10
6727.1605507940294046
 20
4379.7999593400745653
 30
0.0
 40
49.9999999999999929
  1
1
 41
0.8
 72
     4
 11
6731.9224555559349028
 21
4404.7999593400736558
 31
0.0
  0
TEXT
  5
14BF
  8
0
  6
CONTINUOUS
 62
     2
 10
7074.4224555559339933
 20
4059.7999593400741105
 30
0.0
 40
49.9999999999999929
  1
別途工事（給水／給湯用）
 41
0.8
  0
TEXT
  5
14C0
  8
0
  6
CONTINUOUS
 62
     2
 10
6727.160550793971197
 20
3899.79995934007502
 30
0.0
 40
49.9999999999999929
  1
1
 41
0.8
 72
     4
 11
6731.9224555558757856
 21
3924.79995934007502
 31
0.0
  0
TEXT
  5
14C1
  8
0
  6
CONTINUOUS
 62
     2
 10
6727.160550793971197
 20
3819.79995934007502
 30
0.0
 40
49.9999999999999929
  1
1
 41
0.8
 72
     4
 11
6731.9224555558757856
 21
3844.79995934007502
 31
0.0
  0
TEXT
  5
14C2
  8
0
  6
CONTINUOUS
 62
     2
 10
6727.160550793971197
 20
3739.79995934007502
 30
0.0
 40
49.9999999999999929
  1
1
 41
0.8
 72
     4
 11
6731.9224555558757856
 21
3764.79995934007502
 31
0.0
  0
TEXT
  5
14C3
  8
0
  6
CONTINUOUS
 62
     2
 10
6074.4224555559339933
 20
3976.4666260067610892
 30
0.0
 40
49.9999999999999929
  1
ボールバルブ
  0
TEXT
  5
14C4
  8
0
  6
CONTINUOUS
 62
     2
 10
6718.5891222226000536
 20
3979.79995934007502
 30
0.0
 40
49.9999999999999929
  1
3
 41
0.8
 72
     4
 11
6731.9224555559349028
 21
4004.79995934007502
 31
0.0
  0
TEXT
  5
14C5
  8
0
  6
CONTINUOUS
 62
     2
 10
6885.1367412702193178
 20
3979.79995934007502
 30
0.0
 40
49.9999999999999929
  1
BC
 41
0.8
 72
     4
 11
6919.4224555559349028
 21
4004.79995934007502
 31
0.0
  0
LINE
  5
157E
  8
0
  6
CONTINUOUS
 62
     3
 10
5919.4224555559349028
 20
3804.79995934007502
 30
0.0
 11
7669.4224555558757856
 21
3804.79995934007502
 31
0.0
  0
TEXT
  5
157F
  8
0
  6
CONTINUOUS
 62
     2
 10
5953.3510269845055518
 20
3819.79995934007502
 30
0.0
 40
49.9999999999999929
  1
17
 41
0.8
 72
     4
 11
5981.9224555559349028
 21
3844.79995934007502
 31
0.0
  0
TEXT
  5
1584
  8
0
  6
CONTINUOUS
 62
     2
 10
6719.5415031749225818
 20
4699.7999593400745653
 30
0.0
 40
49.9999999999999929
  1
6
 41
0.8
 72
     4
 11
6731.9224555558757856
 21
4724.7999593400736558
 31
0.0
  0
TEXT
  5
1585
  8
0
  6
CONTINUOUS
 62
     2
 10
6718.589122222541846
 20
4619.7999593400736558
 30
0.0
 40
49.9999999999999929
  1
3
 41
0.8
 72
     4
 11
6731.9224555558757856
 21
4644.7999593400736558
 31
0.0
  0
TEXT
  5
1586
  8
0
  6
CONTINUOUS
 62
     2
 10
6074.4224555558748762
 20
4699.7999593400745653
 30
0.0
 40
49.9999999999999929
  1
殺菌灯時間計
  0
TEXT
  5
1587
  8
0
  6
CONTINUOUS
 62
     2
 10
6074.4224555558748762
 20
4619.7999593400736558
 30
0.0
 40
49.9999999999999929
  1
時間計リセットスイッチ
 41
0.85
  0
INSERT
  5
1594
  8
0
 62
     7
  2
*U117
 10
0.0
 20
0.0
 30
0.0
1001
ACAD
1000
DSTYLE
1002
{
1070
   340
1005
F
1002
}
  0
CIRCLE
  5
1595
  8
0
  6
CONTINUOUS
 62
     2
 10
3016.2901415498349706
 20
2489.1106746720038245
 30
0.0
 40
50.0
  0
TEXT
  5
1596
  8
0
  6
CONTINUOUS
 62
     2
 10
3001.4329986926918536
 20
2459.110674672002915
 30
0.0
 40
60.0
  1
9
 41
0.8
 72
     1
 11
3016.2901415498349706
 21
2489.1106746720038245
 31
0.0
 73
     2
  0
CIRCLE
  5
1597
  8
0
  6
CONTINUOUS
 62
     2
 10
3016.4853745848517974
 20
2861.2797022185991409
 30
0.0
 40
50.0
  0
TEXT
  5
1598
  8
0
  6
CONTINUOUS
 62
     2
 10
3001.6282317277100447
 20
2831.2797022185991409
 30
0.0
 40
60.0
  1
6
 41
0.8
 72
     1
 11
3016.4853745848517974
 21
2861.2797022185991409
 31
0.0
 73
     2
  0
INSERT
  5
1599
  8
0
 62
     7
  2
*U118
 10
0.0
 20
0.0
 30
0.0
1001
ACAD
1000
DSTYLE
1002
{
1070
   340
1005
F
1002
}
  0
CIRCLE
  5
159A
  8
0
  6
CONTINUOUS
 62
     2
 10
3017.931826341723081
 20
2755.4091250121127814
 30
0.0
 40
50.0
  0
TEXT
  5
159B
  8
0
  6
CONTINUOUS
 62
     2
 10
3001.931826341723081
 20
2725.4091250121127814
 30
0.0
 40
60.0
  1
7
 41
0.8
 72
     1
 11
3017.931826341723081
 21
2755.4091250121127814
 31
0.0
 73
     2
  0
INSERT
  5
159C
  8
0
 62
     7
  2
*U119
 10
0.0
 20
0.0
 30
0.0
1001
ACAD
1000
DSTYLE
1002
{
1070
   340
1005
F
1002
}
  0
CIRCLE
  5
159D
  8
0
  6
CONTINUOUS
 62
     2
 10
3013.593870637414966
 20
2616.6209772123261246
 30
0.0
 40
50.0
  0
TEXT
  5
159E
  8
0
  6
CONTINUOUS
 62
     2
 10
2997.593870637414966
 20
2586.6209772123261246
 30
0.0
 40
60.0
  1
8
 41
0.8
 72
     1
 11
3013.593870637414966
 21
2616.6209772123261246
 31
0.0
 73
     2
  0
INSERT
  5
159F
  8
0
 62
     7
  2
*U120
 10
0.0
 20
0.0
 30
0.0
1001
ACAD
1000
DSTYLE
1002
{
1070
   340
1005
F
1002
}
  0
LINE
  5
1656
  8
0
  6
PHANTOM
 62
     3
 10
4600.5820676781586371
 20
4121.7723156546117025
 30
0.0
 11
5619.4224555559339933
 21
4121.7723156546117025
 31
0.0
  0
LINE
  5
1657
  8
0
  6
PHANTOM
 62
     3
 10
5619.4224555559339933
 20
4121.7723156546117025
 30
0.0
 11
5619.4224555559339933
 21
5244.7999593400736558
 31
0.0
  0
LINE
  5
1658
  8
0
  6
PHANTOM
 62
     3
 10
5619.4224555559339933
 20
5244.7999593400736558
 30
0.0
 11
4600.5820676781586371
 21
5244.7999593400736558
 31
0.0
  0
LINE
  5
1659
  8
0
  6
PHANTOM
 62
     3
 10
4600.5820676781586371
 20
5244.7999593400736558
 30
0.0
 11
4600.5820676781586371
 21
4121.7723156546117025
 31
0.0
  0
LINE
  5
165A
  8
0
 62
     7
 10
4830.4070972089539282
 20
5130.9911293583572842
 30
0.0
 11
4830.4070972089539282
 21
4423.8362815068112468
 31
0.0
  0
LINE
  5
165B
  8
0
 62
     7
 10
4706.9589305900726686
 20
4774.9437559063080698
 30
0.0
 11
4975.6208091350863469
 21
4774.9437559063080698
 31
0.0
  0
LINE
  5
165C
  8
0
  6
CONTINUOUS
 62
     3
 10
4759.0422639233884183
 20
4297.7575400859341244
 30
0.0
 11
4759.0422639233884183
 21
4368.9634404700482264
 31
0.0
  0
LINE
  5
165D
  8
0
  6
CONTINUOUS
 62
     3
 10
4654.8755972567014396
 20
4368.9634404700482264
 30
0.0
 11
4654.8755972567014396
 21
4297.7575400859341244
 31
0.0
  0
CIRCLE
  5
165E
  8
0
  6
CONTINUOUS
 62
     3
 10
4706.9589305900726686
 20
4333.3604902779916301
 30
0.0
 40
20.8333333333333286
  0
LINE
  5
165F
  8
0
 62
     7
 10
4679.1811528122625532
 20
4297.7575400859341244
 30
0.0
 11
4679.1811528122625532
 21
4072.9852936278330162
 31
0.0
  0
LINE
  5
1660
  8
0
 62
     7
 10
4734.7367083678245763
 20
4297.7575400859341244
 30
0.0
 11
4734.7367083678245763
 21
4072.9852936278330162
 31
0.0
  0
LINE
  5
1661
  8
0
  6
CONTINUOUS
 62
     3
 10
4750.3617083678245763
 20
4072.9852936278330162
 30
0.0
 11
4719.1117083678245763
 21
4020.9019602944608778
 31
0.0
  0
LINE
  5
1662
  8
0
  6
CONTINUOUS
 62
     3
 10
4719.1117083678245763
 20
4072.9852936278330162
 30
0.0
 11
4750.3617083678245763
 21
4020.9019602944608778
 31
0.0
  0
LINE
  5
1663
  8
0
  6
CONTINUOUS
 62
     3
 10
4656.3119671719614416
 20
4031.318626961146947
 30
0.0
 11
4656.3119671719614416
 21
4062.568626961146947
 31
0.0
  0
LINE
  5
1664
  8
0
  6
CONTINUOUS
 62
     3
 10
4711.8675227275807629
 20
4031.318626961146947
 30
0.0
 11
4711.8675227275807629
 21
4062.568626961146947
 31
0.0
  0
LINE
  5
1665
  8
0
  6
CONTINUOUS
 62
     3
 10
4694.8061528122625532
 20
4072.9852936278330162
 30
0.0
 11
4663.5561528122625532
 21
4020.9019602944608778
 31
0.0
  0
LINE
  5
1666
  8
0
  6
CONTINUOUS
 62
     3
 10
4663.5561528122625532
 20
4072.9852936278330162
 30
0.0
 11
4694.8061528122625532
 21
4020.9019602944608778
 31
0.0
  0
LINE
  5
1667
  8
0
  6
CONTINUOUS
 62
     3
 10
4679.1811528122625532
 20
4020.9019602944608778
 30
0.0
 11
4679.1811528122625532
 21
4000.068626961146947
 31
0.0
  0
LINE
  5
1668
  8
0
  6
CONTINUOUS
 62
     3
 10
4663.5561528122625532
 20
4020.9019602944608778
 30
0.0
 11
4694.8061528122625532
 21
4020.9019602944608778
 31
0.0
  0
LINE
  5
1669
  8
0
  6
CONTINUOUS
 62
     3
 10
4734.7367083678245763
 20
4020.9019602944608778
 30
0.0
 11
4734.7367083678245763
 21
4000.068626961146947
 31
0.0
  0
LINE
  5
166A
  8
0
  6
CONTINUOUS
 62
     3
 10
4719.1117083678245763
 20
4020.9019602944608778
 30
0.0
 11
4750.3617083678245763
 21
4020.9019602944608778
 31
0.0
  0
LINE
  5
166B
  8
0
  6
CONTINUOUS
 62
     3
 10
4734.7367083678245763
 20
4046.943626961146947
 30
0.0
 11
4711.8675227275807629
 21
4046.943626961146947
 31
0.0
  0
LINE
  5
166C
  8
0
  6
CONTINUOUS
 62
     3
 10
4679.1811528122625532
 20
4046.943626961146947
 30
0.0
 11
4656.3119671719614416
 21
4046.943626961146947
 31
0.0
  0
LINE
  5
166D
  8
0
  6
CONTINUOUS
 62
     3
 10
4694.8061528122625532
 20
4072.9852936278330162
 30
0.0
 11
4663.5561528122625532
 21
4072.9852936278330162
 31
0.0
  0
LINE
  5
166E
  8
0
  6
CONTINUOUS
 62
     3
 10
4750.3617083678245763
 20
4072.9852936278330162
 30
0.0
 11
4719.1117083678245763
 21
4072.9852936278330162
 31
0.0
  0
LINE
  5
166F
  8
0
  6
CONTINUOUS
 62
     3
 10
4654.8755972567014396
 20
4297.7575400859341244
 30
0.0
 11
4759.0422639233884183
 21
4297.7575400859341244
 31
0.0
  0
LINE
  5
1670
  8
0
 62
     7
 10
4706.9589305900726686
 20
4368.9634404700482264
 30
0.0
 11
4706.9589305900726686
 21
4774.9437559063080698
 31
0.0
  0
LINE
  5
1671
  8
0
  6
CONTINUOUS
 62
     3
 10
4759.0422639233884183
 20
4368.9634404700482264
 30
0.0
 11
4654.8755972567014396
 21
4368.9634404700482264
 31
0.0
  0
LINE
  5
1672
  8
0
 62
     7
 10
5518.1581221689702943
 20
4774.9437559063080698
 30
0.0
 11
5518.1581221689702943
 21
4694.8731115725822747
 31
0.0
  0
LINE
  5
1673
  8
0
  6
CONTINUOUS
 62
     3
 10
5518.1581221689702943
 20
4612.7456462948457556
 30
0.0
 11
5518.1581221689702943
 21
4584.4566992461914197
 31
0.0
  0
LINE
  5
1674
  8
0
  6
CONTINUOUS
 62
     3
 10
5533.4440379675361328
 20
4611.9373546281713061
 30
0.0
 11
5543.1431178286438808
 21
4589.3064509823452681
 31
0.0
  0
LINE
  5
1675
  8
0
  6
CONTINUOUS
 62
     3
 10
5502.8722063703462481
 20
4611.9373546281713061
 30
0.0
 11
5493.1731265091802925
 21
4589.3064509823452681
 31
0.0
  0
LINE
  5
1676
  8
0
  6
CONTINUOUS
 62
     3
 10
5518.1581221689702943
 20
4655.8106115725822747
 30
0.0
 11
5537.6893721689702943
 21
4621.9814518503835643
 31
0.0
  0
LINE
  5
1677
  8
0
  6
CONTINUOUS
 62
     3
 10
5498.6268721689702943
 20
4621.9814518503835643
 30
0.0
 11
5537.6893721689702943
 21
4621.9814518503835643
 31
0.0
  0
LINE
  5
1678
  8
0
  6
CONTINUOUS
 62
     3
 10
5498.6268721689702943
 20
4655.8106115725822747
 30
0.0
 11
5537.6893721689702943
 21
4655.8106115725822747
 31
0.0
  0
LINE
  5
1679
  8
0
  6
CONTINUOUS
 62
     3
 10
5537.6893721689702943
 20
4694.8731115725822747
 30
0.0
 11
5498.6268721689702943
 21
4694.8731115725822747
 31
0.0
  0
LINE
  5
167A
  8
0
  6
CONTINUOUS
 62
     3
 10
5498.6268721689702943
 20
4621.9814518503835643
 30
0.0
 11
5518.1581221689702943
 21
4655.8106115725822747
 31
0.0
  0
LINE
  5
167B
  8
0
  6
CONTINUOUS
 62
     3
 10
5507.3074277244741097
 20
4686.1925560170775498
 30
0.0
 11
5507.3074277244741097
 21
4664.4911671281442977
 31
0.0
  0
LINE
  5
167C
  8
0
  6
CONTINUOUS
 62
     3
 10
5529.0088166133500636
 20
4664.4911671281442977
 30
0.0
 11
5529.0088166133500636
 21
4686.1925560170775498
 31
0.0
  0
LINE
  5
167D
  8
0
  6
CONTINUOUS
 62
     3
 10
5507.3074277244741097
 20
4664.4911671281442977
 30
0.0
 11
5529.0088166133500636
 21
4664.4911671281442977
 31
0.0
  0
LINE
  5
167E
  8
0
  6
CONTINUOUS
 62
     3
 10
5529.0088166133500636
 20
4686.1925560170775498
 30
0.0
 11
5507.3074277244741097
 21
4686.1925560170775498
 31
0.0
  0
LINE
  5
167F
  8
0
  6
CONTINUOUS
 62
     3
 10
5498.6268721689702943
 20
4694.8731115725822747
 30
0.0
 11
5498.6268721689702943
 21
4655.8106115725822747
 31
0.0
  0
LINE
  5
1680
  8
0
  6
CONTINUOUS
 62
     3
 10
5537.6893721689702943
 20
4655.8106115725822747
 30
0.0
 11
5537.6893721689702943
 21
4694.8731115725822747
 31
0.0
  0
LINE
  5
1681
  8
0
 62
     7
 10
5518.1581221689702943
 20
4774.9437559063080698
 30
0.0
 11
5348.2864508418133482
 21
4774.9437559063080698
 31
0.0
  0
CIRCLE
  5
1682
  8
0
  6
CONTINUOUS
 62
     3
 10
5315.7343675084412098
 20
4831.6321245856815949
 30
0.0
 40
26.0416666666666607
  0
LINE
  5
1683
  8
0
  6
CONTINUOUS
 62
     3
 10
5283.182284175127279
 20
4794.4750059063080698
 30
0.0
 11
5348.2864508418133482
 21
4755.4125059063080698
 31
0.0
  0
LINE
  5
1684
  8
0
  6
CONTINUOUS
 62
     3
 10
5283.182284175127279
 20
4755.4125059063080698
 30
0.0
 11
5348.2864508418133482
 21
4794.4750059063080698
 31
0.0
  0
LINE
  5
1685
  8
0
  6
CONTINUOUS
 62
     3
 10
5283.182284175127279
 20
4794.4750059063080698
 30
0.0
 11
5283.182284175127279
 21
4755.4125059063080698
 31
0.0
  0
LINE
  5
1686
  8
0
  6
CONTINUOUS
 62
     3
 10
5348.2864508418133482
 20
4755.4125059063080698
 30
0.0
 11
5348.2864508418133482
 21
4794.4750059063080698
 31
0.0
  0
LINE
  5
1687
  8
0
  6
CONTINUOUS
 62
     3
 10
5315.7343675084412098
 20
4774.9437559063080698
 30
0.0
 11
5315.7343675084412098
 21
4805.5904579190537333
 31
0.0
  0
TEXT
  5
1688
  8
0
  6
CONTINUOUS
 62
     2
 10
5307.6325156565890211
 20
4816.4411523634589685
 30
0.0
 40
30.3819444444444393
  1
S
 41
0.8
 72
     4
 11
5315.7343675084412098
 21
4831.6321245856815949
 31
0.0
  0
LINE
  5
1689
  8
0
 62
     7
 10
4830.4070972089539282
 20
4423.8362815068112468
 30
0.0
 11
4975.6208091350863469
 21
4423.8362815068112468
 31
0.0
  0
LINE
  5
168A
  8
0
 62
     7
 10
5518.1581221689702943
 20
4423.8362815068112468
 30
0.0
 11
5518.1581221689702943
 21
4343.7656371730836327
 31
0.0
  0
LINE
  5
168B
  8
0
  6
CONTINUOUS
 62
     3
 10
5518.1581221689702943
 20
4261.6381718953489326
 30
0.0
 11
5518.1581221689702943
 21
4233.3492248467518948
 31
0.0
  0
LINE
  5
168C
  8
0
  6
CONTINUOUS
 62
     3
 10
5533.4440379675361328
 20
4260.8298802286735736
 30
0.0
 11
5543.1431178286438808
 21
4238.1989765828484451
 31
0.0
  0
LINE
  5
168D
  8
0
  6
CONTINUOUS
 62
     3
 10
5502.8722063703462481
 20
4260.8298802286735736
 30
0.0
 11
5493.1731265091802925
 21
4238.1989765828484451
 31
0.0
  0
LINE
  5
168E
  8
0
  6
CONTINUOUS
 62
     3
 10
5518.1581221689702943
 20
4304.7031371730836327
 30
0.0
 11
5537.6893721689702943
 21
4270.8739774508867413
 31
0.0
  0
LINE
  5
168F
  8
0
  6
CONTINUOUS
 62
     3
 10
5498.6268721689702943
 20
4270.8739774508867413
 30
0.0
 11
5537.6893721689702943
 21
4270.8739774508867413
 31
0.0
  0
LINE
  5
1690
  8
0
  6
CONTINUOUS
 62
     3
 10
5498.6268721689702943
 20
4304.7031371730836327
 30
0.0
 11
5537.6893721689702943
 21
4304.7031371730836327
 31
0.0
  0
LINE
  5
1691
  8
0
  6
CONTINUOUS
 62
     3
 10
5537.6893721689702943
 20
4343.7656371730836327
 30
0.0
 11
5498.6268721689702943
 21
4343.7656371730836327
 31
0.0
  0
LINE
  5
1692
  8
0
  6
CONTINUOUS
 62
     3
 10
5498.6268721689702943
 20
4270.8739774508867413
 30
0.0
 11
5518.1581221689702943
 21
4304.7031371730836327
 31
0.0
  0
LINE
  5
1693
  8
0
  6
CONTINUOUS
 62
     3
 10
5507.3074277244741097
 20
4335.0850816175798172
 30
0.0
 11
5507.3074277244741097
 21
4313.3836927287047729
 31
0.0
  0
LINE
  5
1694
  8
0
  6
CONTINUOUS
 62
     3
 10
5529.0088166133500636
 20
4313.3836927287047729
 30
0.0
 11
5529.0088166133500636
 21
4335.0850816175798172
 31
0.0
  0
LINE
  5
1695
  8
0
  6
CONTINUOUS
 62
     3
 10
5507.3074277244741097
 20
4313.3836927287047729
 30
0.0
 11
5529.0088166133500636
 21
4313.3836927287047729
 31
0.0
  0
LINE
  5
1696
  8
0
  6
CONTINUOUS
 62
     3
 10
5529.0088166133500636
 20
4335.0850816175798172
 30
0.0
 11
5507.3074277244741097
 21
4335.0850816175798172
 31
0.0
  0
LINE
  5
1697
  8
0
  6
CONTINUOUS
 62
     3
 10
5498.6268721689702943
 20
4343.7656371730836327
 30
0.0
 11
5498.6268721689702943
 21
4304.7031371730836327
 31
0.0
  0
LINE
  5
1698
  8
0
  6
CONTINUOUS
 62
     3
 10
5537.6893721689702943
 20
4304.7031371730836327
 30
0.0
 11
5537.6893721689702943
 21
4343.7656371730836327
 31
0.0
  0
LINE
  5
1699
  8
0
 62
     7
 10
5518.1581221689702943
 20
4423.8362815068112468
 30
0.0
 11
5348.2864508418133482
 21
4423.8362815068112468
 31
0.0
  0
CIRCLE
  5
169A
  8
0
  6
CONTINUOUS
 62
     3
 10
5315.7343675084412098
 20
4480.5246501861829529
 30
0.0
 40
26.0416666666666607
  0
LINE
  5
169B
  8
0
  6
CONTINUOUS
 62
     3
 10
5283.182284175127279
 20
4443.3675315068112468
 30
0.0
 11
5348.2864508418133482
 21
4404.3050315068112468
 31
0.0
  0
LINE
  5
169C
  8
0
  6
CONTINUOUS
 62
     3
 10
5283.182284175127279
 20
4404.3050315068112468
 30
0.0
 11
5348.2864508418133482
 21
4443.3675315068112468
 31
0.0
  0
LINE
  5
169D
  8
0
  6
CONTINUOUS
 62
     3
 10
5283.182284175127279
 20
4443.3675315068112468
 30
0.0
 11
5283.182284175127279
 21
4404.3050315068112468
 31
0.0
  0
LINE
  5
169E
  8
0
  6
CONTINUOUS
 62
     3
 10
5348.2864508418133482
 20
4404.3050315068112468
 30
0.0
 11
5348.2864508418133482
 21
4443.3675315068112468
 31
0.0
  0
LINE
  5
169F
  8
0
  6
CONTINUOUS
 62
     3
 10
5315.7343675084412098
 20
4423.8362815068112468
 30
0.0
 11
5315.7343675084412098
 21
4454.4829835195560008
 31
0.0
  0
TEXT
  5
16A0
  8
0
  6
CONTINUOUS
 62
     2
 10
5307.6325156565890211
 20
4465.3336779639612359
 30
0.0
 40
30.3819444444444393
  1
S
 41
0.8
 72
     4
 11
5315.7343675084412098
 21
4480.5246501861829529
 31
0.0
  0
LINE
  5
16A1
  8
0
 62
     7
 10
4830.4070972089539282
 20
5130.9911293583572842
 30
0.0
 11
4975.6208091350863469
 21
5130.9911293583572842
 31
0.0
  0
LINE
  5
16A2
  8
0
 62
     7
 10
5518.1581221689702943
 20
5130.9911293583572842
 30
0.0
 11
5518.1581221689702943
 21
5050.9204850246305796
 31
0.0
  0
LINE
  5
16A3
  8
0
  6
CONTINUOUS
 62
     3
 10
5518.1581221689702943
 20
4968.7930197468958795
 30
0.0
 11
5518.1581221689702943
 21
4940.5040726982397246
 31
0.0
  0
LINE
  5
16A4
  8
0
  6
CONTINUOUS
 62
     3
 10
5533.4440379675361328
 20
4967.98472808022143
 30
0.0
 11
5543.1431178286438808
 21
4945.353824434395392
 31
0.0
  0
LINE
  5
16A5
  8
0
  6
CONTINUOUS
 62
     3
 10
5502.8722063703462481
 20
4967.98472808022143
 30
0.0
 11
5493.1731265091802925
 21
4945.353824434395392
 31
0.0
  0
LINE
  5
16A6
  8
0
  6
CONTINUOUS
 62
     3
 10
5518.1581221689702943
 20
5011.8579850246305796
 30
0.0
 11
5537.6893721689702943
 21
4978.0288253024336882
 31
0.0
  0
LINE
  5
16A7
  8
0
  6
CONTINUOUS
 62
     3
 10
5498.6268721689702943
 20
4978.0288253024336882
 30
0.0
 11
5537.6893721689702943
 21
4978.0288253024336882
 31
0.0
  0
LINE
  5
16A8
  8
0
  6
CONTINUOUS
 62
     3
 10
5498.6268721689702943
 20
5011.8579850246305796
 30
0.0
 11
5537.6893721689702943
 21
5011.8579850246305796
 31
0.0
  0
LINE
  5
16A9
  8
0
  6
CONTINUOUS
 62
     3
 10
5537.6893721689702943
 20
5050.9204850246305796
 30
0.0
 11
5498.6268721689702943
 21
5050.9204850246305796
 31
0.0
  0
LINE
  5
16AA
  8
0
  6
CONTINUOUS
 62
     3
 10
5498.6268721689702943
 20
4978.0288253024336882
 30
0.0
 11
5518.1581221689702943
 21
5011.8579850246305796
 31
0.0
  0
LINE
  5
16AB
  8
0
  6
CONTINUOUS
 62
     3
 10
5507.3074277244741097
 20
5042.2399294690703755
 30
0.0
 11
5507.3074277244741097
 21
5020.5385405801944216
 31
0.0
  0
LINE
  5
16AC
  8
0
  6
CONTINUOUS
 62
     3
 10
5529.0088166133500636
 20
5020.5385405801944216
 30
0.0
 11
5529.0088166133500636
 21
5042.2399294690703755
 31
0.0
  0
LINE
  5
16AD
  8
0
  6
CONTINUOUS
 62
     3
 10
5507.3074277244741097
 20
5020.5385405801944216
 30
0.0
 11
5529.0088166133500636
 21
5020.5385405801944216
 31
0.0
  0
LINE
  5
16AE
  8
0
  6
CONTINUOUS
 62
     3
 10
5529.0088166133500636
 20
5042.2399294690703755
 30
0.0
 11
5507.3074277244741097
 21
5042.2399294690703755
 31
0.0
  0
LINE
  5
16AF
  8
0
  6
CONTINUOUS
 62
     3
 10
5498.6268721689702943
 20
5050.9204850246305796
 30
0.0
 11
5498.6268721689702943
 21
5011.8579850246305796
 31
0.0
  0
LINE
  5
16B0
  8
0
  6
CONTINUOUS
 62
     3
 10
5537.6893721689702943
 20
5011.8579850246305796
 30
0.0
 11
5537.6893721689702943
 21
5050.9204850246305796
 31
0.0
  0
LINE
  5
16B1
  8
0
 62
     7
 10
5518.1581221689702943
 20
5130.9911293583572842
 30
0.0
 11
5348.2864508418133482
 21
5130.9911293583572842
 31
0.0
  0
CIRCLE
  5
16B2
  8
0
  6
CONTINUOUS
 62
     3
 10
5315.7343675084412098
 20
5187.6794980377308093
 30
0.0
 40
26.0416666666666607
  0
LINE
  5
16B3
  8
0
  6
CONTINUOUS
 62
     3
 10
5283.182284175127279
 20
5150.5223793583572842
 30
0.0
 11
5348.2864508418133482
 21
5111.4598793583572842
 31
0.0
  0
LINE
  5
16B4
  8
0
  6
CONTINUOUS
 62
     3
 10
5283.182284175127279
 20
5111.4598793583572842
 30
0.0
 11
5348.2864508418133482
 21
5150.5223793583572842
 31
0.0
  0
LINE
  5
16B5
  8
0
  6
CONTINUOUS
 62
     3
 10
5283.182284175127279
 20
5150.5223793583572842
 30
0.0
 11
5283.182284175127279
 21
5111.4598793583572842
 31
0.0
  0
LINE
  5
16B6
  8
0
  6
CONTINUOUS
 62
     3
 10
5348.2864508418133482
 20
5111.4598793583572842
 30
0.0
 11
5348.2864508418133482
 21
5150.5223793583572842
 31
0.0
  0
LINE
  5
16B7
  8
0
  6
CONTINUOUS
 62
     3
 10
5315.7343675084412098
 20
5130.9911293583572842
 30
0.0
 11
5315.7343675084412098
 21
5161.6378313710447401
 31
0.0
  0
TEXT
  5
16B8
  8
0
  6
CONTINUOUS
 62
     2
 10
5307.6325156565890211
 20
5172.4885258155081829
 30
0.0
 40
30.3819444444444393
  1
S
 41
0.8
 72
     4
 11
5315.7343675084412098
 21
5187.6794980377308093
 31
0.0
  0
LINE
  5
16B9
  8
0
  6
CONTINUOUS
 62
     3
 10
4975.6208091350863469
 20
5150.5223793583572842
 30
0.0
 11
5040.7249758017705972
 21
5111.4598793583572842
 31
0.0
  0
LINE
  5
16BA
  8
0
  6
CONTINUOUS
 62
     3
 10
4975.6208091350863469
 20
5111.4598793583572842
 30
0.0
 11
5040.7249758017705972
 21
5150.5223793583572842
 31
0.0
  0
LINE
  5
16BB
  8
0
  6
CONTINUOUS
 62
     3
 10
4975.6208091350863469
 20
5150.5223793583572842
 30
0.0
 11
4975.6208091350863469
 21
5111.4598793583572842
 31
0.0
  0
LINE
  5
16BC
  8
0
  6
CONTINUOUS
 62
     3
 10
5040.7249758017705972
 20
5111.4598793583572842
 30
0.0
 11
5040.7249758017705972
 21
5150.5223793583572842
 31
0.0
  0
LINE
  5
16BD
  8
0
  6
CONTINUOUS
 62
     3
 10
5008.1728924683993682
 20
5130.9911293583572842
 30
0.0
 11
5008.1728924683993682
 21
5170.2719806300592609
 31
0.0
  0
LINE
  5
16BE
  8
0
  6
CONTINUOUS
 62
     3
 10
4976.9228924683993682
 20
5170.2719806300592609
 30
0.0
 11
5008.1728924683993682
 21
5170.2719806300592609
 31
0.0
  0
CIRCLE
  5
16BF
  8
0
  6
CONTINUOUS
 62
     3
 10
5008.1728924683993682
 20
5130.9911293583572842
 30
0.0
 40
12.5
  0
LINE
  5
16C0
  8
0
  6
CONTINUOUS
 62
     3
 10
4975.6208091350863469
 20
4794.4750059063080698
 30
0.0
 11
5040.7249758017705972
 21
4755.4125059063080698
 31
0.0
  0
LINE
  5
16C1
  8
0
  6
CONTINUOUS
 62
     3
 10
4975.6208091350863469
 20
4755.4125059063080698
 30
0.0
 11
5040.7249758017705972
 21
4794.4750059063080698
 31
0.0
  0
LINE
  5
16C2
  8
0
  6
CONTINUOUS
 62
     3
 10
4975.6208091350863469
 20
4794.4750059063080698
 30
0.0
 11
4975.6208091350863469
 21
4755.4125059063080698
 31
0.0
  0
LINE
  5
16C3
  8
0
  6
CONTINUOUS
 62
     3
 10
5040.7249758017705972
 20
4755.4125059063080698
 30
0.0
 11
5040.7249758017705972
 21
4794.4750059063080698
 31
0.0
  0
LINE
  5
16C4
  8
0
  6
CONTINUOUS
 62
     3
 10
5008.1728924683993682
 20
4774.9437559063080698
 30
0.0
 11
5008.1728924683993682
 21
4814.2246071780100465
 31
0.0
  0
LINE
  5
16C5
  8
0
  6
CONTINUOUS
 62
     3
 10
4976.9228924683993682
 20
4814.2246071780100465
 30
0.0
 11
5008.1728924683993682
 21
4814.2246071780100465
 31
0.0
  0
CIRCLE
  5
16C6
  8
0
  6
CONTINUOUS
 62
     3
 10
5008.1728924683993682
 20
4774.9437559063080698
 30
0.0
 40
12.5
  0
LINE
  5
16C7
  8
0
  6
CONTINUOUS
 62
     3
 10
4975.6208091350863469
 20
4443.3675315068112468
 30
0.0
 11
5040.7249758017705972
 21
4404.3050315068112468
 31
0.0
  0
LINE
  5
16C8
  8
0
  6
CONTINUOUS
 62
     3
 10
4975.6208091350863469
 20
4404.3050315068112468
 30
0.0
 11
5040.7249758017705972
 21
4443.3675315068112468
 31
0.0
  0
LINE
  5
16C9
  8
0
  6
CONTINUOUS
 62
     3
 10
4975.6208091350863469
 20
4443.3675315068112468
 30
0.0
 11
4975.6208091350863469
 21
4404.3050315068112468
 31
0.0
  0
LINE
  5
16CA
  8
0
  6
CONTINUOUS
 62
     3
 10
5040.7249758017705972
 20
4404.3050315068112468
 30
0.0
 11
5040.7249758017705972
 21
4443.3675315068112468
 31
0.0
  0
LINE
  5
16CB
  8
0
  6
CONTINUOUS
 62
     3
 10
5008.1728924683993682
 20
4423.8362815068112468
 30
0.0
 11
5008.1728924683993682
 21
4463.1171327785132235
 31
0.0
  0
LINE
  5
16CC
  8
0
  6
CONTINUOUS
 62
     3
 10
4976.9228924683993682
 20
4463.1171327785132235
 30
0.0
 11
5008.1728924683993682
 21
4463.1171327785132235
 31
0.0
  0
CIRCLE
  5
16CD
  8
0
  6
CONTINUOUS
 62
     3
 10
5008.1728924683993682
 20
4423.8362815068112468
 30
0.0
 40
12.5
  0
INSERT
  5
16CE
  8
0
 62
     7
  2
*U121
 10
0.0
 20
0.0
 30
0.0
1001
ACAD
1000
DSTYLE
1002
{
1070
   340
1005
F
1002
}
  0
CIRCLE
  5
16CF
  8
0
  6
CONTINUOUS
 62
     2
 10
4988.6321769708301872
 20
5000.8659263858571649
 30
0.0
 40
49.9999999999999787
  0
TEXT
  5
16D0
  8
0
  6
CONTINUOUS
 62
     2
 10
4954.3464626851164212
 20
4970.8659263858571649
 30
0.0
 40
59.9999999999999787
  1
15
 41
0.8
 72
     1
 11
4988.6321769708301872
 21
5000.8659263858571649
 31
0.0
 73
     2
  0
INSERT
  5
16D1
  8
0
 62
     7
  2
*U122
 10
0.0
 20
0.0
 30
0.0
1001
ACAD
1000
DSTYLE
1002
{
1070
   340
1005
F
1002
}
  0
CIRCLE
  5
16D2
  8
0
  6
CONTINUOUS
 62
     2
 10
4935.5325223127720164
 20
4273.7744789221906103
 30
0.0
 40
49.9999999999999787
  0
TEXT
  5
16D3
  8
0
  6
CONTINUOUS
 62
     2
 10
4901.2468080270591599
 20
4243.7744789221897008
 30
0.0
 40
59.9999999999999787
  1
10
 41
0.8
 72
     1
 11
4935.5325223127720164
 21
4273.7744789221906103
 31
0.0
 73
     2
  0
INSERT
  5
16D4
  8
0
 62
     7
  2
*U123
 10
0.0
 20
0.0
 30
0.0
1001
ACAD
1000
DSTYLE
1002
{
1070
   340
1005
F
1002
}
  0
CIRCLE
  5
16D5
  8
0
  6
CONTINUOUS
 62
     2
 10
4940.3237678604191387
 20
4025.3854975694548557
 30
0.0
 40
49.9999999999999787
  0
TEXT
  5
16D6
  8
0
  6
CONTINUOUS
 62
     2
 10
4904.8951964318475802
 20
3995.3854975694562199
 30
0.0
 40
59.9999999999999787
  1
14
 41
0.8
 72
     1
 11
4940.3237678604191387
 21
4025.3854975694548557
 31
0.0
 73
     2
  0
TEXT
  5
16D7
  8
0
  6
CONTINUOUS
 62
     2
 10
4714.758798104187008
 20
3927.6069651088910177
 30
0.0
 40
49.9999999999999929
  1
給水
 41
0.65
  0
TEXT
  5
16D8
  8
0
  6
CONTINUOUS
 62
     2
 10
4616.0462483357978272
 20
3928.6490836940938607
 30
0.0
 40
49.9999999999999929
  1
給湯
 41
0.65
  0
TEXT
  5
16D9
  8
0
  6
CONTINUOUS
 62
     2
 10
5262.8441774216480553
 20
4688.7003991398378275
 30
0.0
 40
49.9999999999999929
  1
電磁弁
 41
0.65
  0
TEXT
  5
16DA
  8
0
  6
CONTINUOUS
 62
     2
 10
5343.5969865961233154
 20
4515.9953204676858149
 30
0.0
 40
49.9999999999999929
  1
逆汚染防止蛇口
 41
0.6
  0
LINE
  5
16DB
  8
0
  6
CONTINUOUS
 62
     2
 10
5420.2785593880107626
 20
3907.570707147999201
 30
0.0
 11
5061.6221526977033136
 21
3907.570707147999201
 31
0.0
  0
TEXT
  5
16DC
  8
0
  6
CONTINUOUS
 62
     2
 10
5061.6221526977033136
 20
3919.3053967448067851
 30
0.0
 40
49.9999999999999787
  1
フローシート
  0
LINE
  5
16DD
  8
0
 10
5283.182284175127279
 20
5130.9911293583572842
 30
0.0
 11
5040.7249758017705972
 21
5130.9911293583572842
 31
0.0
  0
LINE
  5
16DE
  8
0
 10
5283.182284175127279
 20
4774.9437559063080698
 30
0.0
 11
5040.7249758017705972
 21
4774.9437559063080698
 31
0.0
  0
LINE
  5
16DF
  8
0
 10
5283.182284175127279
 20
4423.8362815068112468
 30
0.0
 11
5040.7249758017705972
 21
4423.8362815068112468
 31
0.0
  0
TEXT
  5
16E1
  8
0
  6
CONTINUOUS
 62
     3
 10
5975.7874304317683709
 20
610.1859779204824008
 30
0.0
 40
100.0
  1
3人用手洗装置（水道水対応）外形図
 41
0.9
 72
     4
 11
6867.6445732889123974
 21
660.1859779204824008
 31
0.0
  0
INSERT
  5
16E5
  8
0
 62
     6
  2
A$C4CD329FB
 10
4801.5165262104710564
 20
1115.2527918371490614
 30
0.0
  0
CIRCLE
  5
16E7
  8
0
 62
     7
 10
4830.4070972089539282
 20
4774.9437559063080698
 30
0.0
 40
3.472222222218988
  0
POLYLINE
  5
16EA
  8
0
 62
     7
 66
     1
 10
0.0
 20
0.0
 30
0.0
 70
     1
  0
VERTEX
  5
2468
  8
0
 62
     7
 10
0.0
 20
0.0
 30
0.0
  0
VERTEX
  5
2469
  8
0
 62
     7
 10
7809.2857142857392319
 20
0.0
 30
0.0
  0
VERTEX
  5
246A
  8
0
 62
     7
 10
7809.2857142857392319
 20
5446.4761904762126505
 30
0.0
  0
VERTEX
  5
246B
  8
0
 62
     7
 10
0.0
 20
5446.4761904762126505
 30
0.0
  0
SEQEND
  5
246C
  8
0
 62
     7
  0
LINE
  5
1748
  8
0
  6
CONTINUOUS
 62
     2
 10
6198.6598015046329238
 20
2278.0139541256939992
 30
0.0
 11
7654.8318179208426955
 21
2278.0139541256939992
 31
0.0
  0
TEXT
  5
1749
  8
0
  6
CONTINUOUS
 62
     2
 10
6229.5736753208329901
 20
2292.7622010559430237
 30
0.0
 40
49.9999999998000035
  1
特記）鏡以外の本体材質は、全てアクリル系人工大理石製のこと。
 41
0.8
  0
INSERT
  5
186D
  8
0
  2
A$C615207BD
 10
4617.2590313824475743
 20
3038.2527315743500367
 30
0.0
  0
POLYLINE
  5
186E
  8
0
  6
CONTINUOUS
 62
     3
 66
     1
 10
0.0
 20
0.0
 30
0.0
1001
GENIUS_GENREC_14
1002
{
1000
PYDIR
1011
4621.5162102104513906
1021
0.0
1031
0.0
1021
3017.786229829478998
1031
0.0
1002
}
1002
{
1000
PXDIR
1011
4751.5162102104513906
1021
0.0
1031
0.0
1021
2367.786229829478998
1031
0.0
1002
}
1002
{
1000
PORI
1011
4621.5162102104513906
1021
0.0
1031
0.0
1021
2367.786229829478998
1031
0.0
1002
}
1002
{
1000
PINS
1011
4621.5162102104513906
1021
0.0
1031
0.0
1021
2367.786229829478998
1031
0.0
1002
}
1002
{
1000
PINS2
1011
4751.5162102104513906
1021
0.0
1031
0.0
1021
3017.786229829478998
1031
0.0
1002
}
1002
{
1000
C
1070
     1
1002
}
1001
GENIUS_GENODEF_13
1002
{
1000
HIER
1070
     0
1002
}
1002
{
1000
MANEDIT
1070
     0
1002
}
1002
{
1000
NOSEL
1070
     0
1002
}
1002
{
1000
BEHIND
1070
     0
1002
}
1002
{
1000
REACTOR
1002
}
1001
GENIUS_GENOBJ-N-REC_13
1002
{
1000
OWNER
1000
GEN
1002
}
  0
VERTEX
  5
186F
  8
0
  6
CONTINUOUS
 62
     3
 10
4621.5162102104513906
 20
3017.786229829478998
 30
0.0
  0
VERTEX
  5
1870
  8
0
  6
CONTINUOUS
 62
     3
 10
4621.5162102104513906
 20
2367.786229829478998
 30
0.0
  0
SEQEND
  5
1871
  8
0
  6
CONTINUOUS
 62
     3
  0
LINE
  5
1872
  8
0
  6
CONTINUOUS
 62
     3
 10
4610.5162022104477728
 20
2706.7526988372560481
 30
0.0
 11
4611.5161999177071266
 21
2706.7526988372560481
 31
0.0
  0
LINE
  5
1873
  8
0
  6
CONTINUOUS
 62
     3
 10
4610.5162022104477728
 20
2706.7526988372560481
 30
0.0
 11
4610.5162022104477728
 21
2705.163297800347209
 31
0.0
  0
LINE
  5
1874
  8
0
  6
CONTINUOUS
 62
     3
 10
4587.5162022104486823
 20
2303.252698837196931
 30
0.0
 11
4603.4001602104399353
 21
2303.252698837196931
 31
0.0
  0
LINE
  5
1875
  8
0
  6
CONTINUOUS
 62
     3
 10
4539.5162022104486823
 20
2302.2526988371978405
 30
0.0
 11
4611.5162095043933732
 21
2302.2526988371978405
 31
0.0
  0
LINE
  5
1876
  8
0
  6
CONTINUOUS
 62
     3
 10
4539.5162022104486823
 20
2303.252698837196931
 30
0.0
 11
4557.5162022104477728
 21
2303.252698837196931
 31
0.0
  0
LINE
  5
1877
  8
0
  6
CONTINUOUS
 62
     3
 10
4539.5162022104486823
 20
2303.252698837196931
 30
0.0
 11
4539.5162022104486823
 21
2302.2526988371978405
 31
0.0
  0
LINE
  5
1878
  8
0
  6
CONTINUOUS
 62
     3
 10
4585.5162022104477728
 20
2308.3859358371701092
 30
0.0
 11
4559.5162022104477728
 21
2308.3859358371701092
 31
0.0
  0
LINE
  5
1879
  8
0
  6
CONTINUOUS
 62
     3
 10
4557.5162022104477728
 20
2306.3859358371701092
 30
0.0
 11
4557.5162022104477728
 21
2302.2526988371978405
 31
0.0
  0
LINE
  5
187A
  8
0
  6
CONTINUOUS
 62
     3
 10
4562.5162022104477728
 20
2302.2526988371978405
 30
0.0
 11
4562.5162022104477728
 21
2297.752698837196931
 31
0.0
  0
LINE
  5
187B
  8
0
  6
CONTINUOUS
 62
     3
 10
4587.5162022104486823
 20
2306.3859358371701092
 30
0.0
 11
4587.5162022104486823
 21
2302.2526988371978405
 31
0.0
  0
LINE
  5
187C
  8
0
  6
CONTINUOUS
 62
     3
 10
4604.1062262104824185
 20
2302.3627268371637911
 30
0.0
 11
4608.5162022104486823
 21
2307.7526988371978405
 31
0.0
  0
LINE
  5
187D
  8
0
  6
CONTINUOUS
 62
     3
 10
4603.6323472104268149
 20
2303.3627268371637911
 30
0.0
 11
4607.7422452104510739
 21
2308.3859358371701092
 31
0.0
  0
LINE
  5
187E
  8
0
  6
CONTINUOUS
 62
     3
 10
4602.5162022104477728
 20
2299.252698837196931
 30
0.0
 11
4611.5162095754049005
 21
2299.252698837196931
 31
0.0
  0
LINE
  5
187F
  8
0
  6
CONTINUOUS
 62
     3
 10
4602.5162022104477728
 20
2302.2526988371978405
 30
0.0
 11
4602.5162022104477728
 21
2297.752698837196931
 31
0.0
  0
LINE
  5
1880
  8
0
  6
CONTINUOUS
 62
     3
 10
4607.7422452104510739
 20
2308.3859358371701092
 30
0.0
 11
4608.5162022104486823
 21
2307.7526988371978405
 31
0.0
  0
LINE
  5
1881
  8
0
  6
CONTINUOUS
 62
     3
 10
4528.9909668244654313
 20
2511.2526988371391781
 30
0.0
 11
4535.6972432731408844
 21
2511.2526988371391781
 31
0.0
  0
LINE
  5
1882
  8
0
  6
CONTINUOUS
 62
     3
 10
4528.9909668245227294
 20
2537.2526988373720087
 30
0.0
 11
4535.9909668245227294
 21
2537.2526988371391781
 31
0.0
  0
LINE
  5
1883
  8
0
  6
CONTINUOUS
 62
     3
 10
4442.5171264919908936
 20
2481.252698837196931
 30
0.0
 11
4442.5171264919908936
 21
2460.252698837196931
 31
0.0
  0
LINE
  5
1884
  8
0
  6
CONTINUOUS
 62
     3
 10
4332.5171264920491012
 20
2455.2526988371978405
 30
0.0
 11
4437.5171264919918031
 21
2455.2526988371978405
 31
0.0
  0
LINE
  5
1885
  8
0
  6
CONTINUOUS
 62
     3
 10
4332.5171264920491012
 20
2493.7526988371978405
 30
0.0
 11
4332.5171264920491012
 21
2455.2526988371978405
 31
0.0
  0
LINE
  5
1886
  8
0
  6
CONTINUOUS
 62
     3
 10
4373.5171264919918031
 20
2496.2526988372560481
 30
0.0
 11
4373.5171264920500107
 21
2455.2526988371978405
 31
0.0
  0
LINE
  5
1887
  8
0
  6
CONTINUOUS
 62
     3
 10
4373.0793131190002896
 20
2505.4555811933241785
 30
0.0
 11
4371.2232841969225774
 21
2510.5549787465138252
 31
0.0
  0
LINE
  5
1888
  8
0
  6
CONTINUOUS
 62
     3
 10
4349.0162022104486823
 20
2455.2526988371978405
 30
0.0
 11
4349.0162022104486823
 21
2450.2526988371400876
 31
0.0
  0
LINE
  5
1889
  8
0
  6
CONTINUOUS
 62
     3
 10
4349.0162022104486823
 20
2450.2526988371400876
 30
0.0
 11
4356.0162022104477728
 21
2450.2526988371400876
 31
0.0
  0
LINE
  5
188A
  8
0
  6
CONTINUOUS
 62
     3
 10
4356.0162022104477728
 20
2455.2526988371978405
 30
0.0
 11
4356.0162022104477728
 21
2450.2526988371400876
 31
0.0
  0
LINE
  5
188B
  8
0
  6
CONTINUOUS
 62
     3
 10
4541.5980727717396803
 20
2502.7526988373138011
 30
0.0
 11
4541.5980727717969785
 21
2497.7526988373138011
 31
0.0
  0
LINE
  5
188C
  8
0
  6
CONTINUOUS
 62
     3
 10
4456.5171264919908936
 20
2495.2526988371978405
 30
0.0
 11
4540.8980727718444541
 21
2495.2526988371978405
 31
0.0
  0
LINE
  5
188D
  8
0
  6
CONTINUOUS
 62
     3
 10
4378.1868237121370839
 20
2504.2526988371978405
 30
0.0
 11
4541.4580727762067909
 21
2504.2526988371978405
 31
0.0
  0
LINE
  5
188E
  8
0
  6
CONTINUOUS
 62
     3
 10
4535.648660028527047
 20
2505.252698837196931
 30
0.0
 11
4540.8980727717862464
 21
2505.252698837196931
 31
0.0
  0
LINE
  5
188F
  8
0
  6
CONTINUOUS
 62
     3
 10
4536.1803078253278727
 20
2549.7526988371391781
 30
0.0
 11
4538.180576792336069
 21
2549.7526988367321792
 31
0.0
  0
LINE
  5
1890
  8
0
  6
CONTINUOUS
 62
     3
 10
4572.4869012105036745
 20
2456.2767559970379807
 30
0.0
 11
4577.9750932104652748
 21
2470.4305139970388154
 31
0.0
  0
LINE
  5
1891
  8
0
  6
CONTINUOUS
 62
     3
 10
4566.4265522104687989
 20
2458.6266869970709195
 30
0.0
 11
4572.9530822104998151
 21
2456.095991997047804
 31
0.0
  0
LINE
  5
1892
  8
0
  6
CONTINUOUS
 62
     3
 10
4566.89273321046403
 20
2458.445922997082107
 30
0.0
 11
4572.3809252104838379
 21
2472.5996809970820323
 31
0.0
  0
LINE
  5
1893
  8
0
  6
CONTINUOUS
 62
     3
 10
4578.51620221050689
 20
2473.32273699704092
 30
0.0
 11
4578.5162022104477728
 21
2478.32273699704092
 31
0.0
  0
LINE
  5
1894
  8
0
  6
CONTINUOUS
 62
     3
 10
4572.516202210157644
 20
2478.0617092780889834
 30
0.0
 11
4572.51620221050689
 21
2473.32273699704092
 31
0.0
  0
LINE
  5
1895
  8
0
  6
CONTINUOUS
 62
     3
 10
4563.5162022104486823
 20
2296.7526988371978405
 30
0.0
 11
4601.5162022104486823
 21
2296.7526988371978405
 31
0.0
  0
LINE
  5
1896
  8
0
  6
CONTINUOUS
 62
     3
 10
4513.8164940976421349
 20
2322.948111520322982
 30
0.0
 11
4539.7203528098762035
 21
2389.7528020206377732
 31
0.0
  0
LINE
  5
1897
  8
0
  6
CONTINUOUS
 62
     3
 10
4549.4142300355006228
 20
2414.7528020206959809
 30
0.0
 11
4566.4265522104687989
 21
2458.6266869970709195
 31
0.0
  0
LINE
  5
1898
  8
0
  6
CONTINUOUS
 62
     3
 10
4520.3430205403128639
 20
2320.4174174893410054
 30
0.0
 11
4547.2281707518268377
 21
2389.7528020206959809
 31
0.0
  0
LINE
  5
1899
  8
0
  6
CONTINUOUS
 62
     3
 10
4556.9220487021957524
 20
2414.7528020206959809
 30
0.0
 11
4572.9530822104998151
 21
2456.095991997047804
 31
0.0
  0
LINE
  5
189A
  8
0
  6
CONTINUOUS
 62
     3
 10
4513.8164940976421349
 20
2322.948111520322982
 30
0.0
 11
4520.3430205403128639
 21
2320.4174174893410054
 31
0.0
  0
CIRCLE
  5
189B
  8
0
  6
CONTINUOUS
 62
     3
 10
4599.5162022104477728
 20
2497.2526988373720087
 30
0.0
 40
7.0
  0
CIRCLE
  5
189C
  8
0
  6
CONTINUOUS
 62
     3
 10
4599.5162022104477728
 20
2497.2526988373720087
 30
0.0
 40
5.5
  0
ARC
  5
189D
  8
0
  6
CONTINUOUS
 62
     3
 10
4618.3792208899967591
 20
2405.2663606082210208
 30
0.0
 40
300.0
 50
91.3108548042506669
 51
104.0993171682731031
  0
ARC
  5
189E
  8
0
  6
CONTINUOUS
 62
     3
 10
4546.5162022104477728
 20
2691.3794615775118473
 30
0.0
 40
5.0
 50
104.0993171682731031
 51
177.4340859117735931
  0
ARC
  5
189F
  8
0
  6
CONTINUOUS
 62
     3
 10
4607.5162022104477728
 20
2492.1288886604597792
 30
0.0
 40
12.0
 50
274.3805105481586111
 51
289.471236141103418
  0
ARC
  5
18A0
  8
0
  6
CONTINUOUS
 62
     3
 10
4532.0528895392781124
 20
3477.2427340817521326
 30
0.0
 40
1000.0
 50
270.255782786228508
 51
274.3805105481586111
  0
ARC
  5
18A1
  8
0
  6
CONTINUOUS
 62
     3
 10
4563.5162022104486823
 20
2297.752698837196931
 30
0.0
 40
1.0
 50
180.0
 51
270.0
  0
ARC
  5
18A2
  8
0
  6
CONTINUOUS
 62
     3
 10
4559.5162022104477728
 20
2306.3859358371701092
 30
0.0
 40
2.0
 50
90.0
 51
180.0
  0
ARC
  5
18A3
  8
0
  6
CONTINUOUS
 62
     3
 10
4585.5162022104477728
 20
2306.3859358371701092
 30
0.0
 40
2.0
 50
0.0
 51
90.0
  0
ARC
  5
18A4
  8
0
  6
CONTINUOUS
 62
     3
 10
4601.5162022104486823
 20
2297.752698837196931
 30
0.0
 40
1.0
 50
270.0
 51
0.0
  0
ARC
  5
18A5
  8
0
  6
CONTINUOUS
 62
     3
 10
4603.8740392104373313
 20
2302.5526988371861989
 30
0.0
 40
0.3
 50
270.0
 51
320.7105929992594042
  0
ARC
  5
18A6
  8
0
  6
CONTINUOUS
 62
     3
 10
4603.4001602104399353
 20
2303.5526988371861989
 30
0.0
 40
0.3
 50
270.0
 51
320.7105929992594042
  0
ARC
  5
18A7
  8
0
  6
CONTINUOUS
 62
     3
 10
9536.5081151592894457
 20
2467.759899138648052
 30
0.0
 40
5001.0
 50
179.0605775106681108
 51
179.5704460494671082
  0
ARC
  5
18A8
  8
0
  6
CONTINUOUS
 62
     3
 10
4612.990966821672373
 20
2524.2526988371978405
 30
0.0
 40
84.999999997214573
 50
171.2025892888084968
 51
188.7974107111913895
  0
ARC
  5
18A9
  8
0
  6
CONTINUOUS
 62
     3
 10
4528.9909668244654313
 20
2534.7526988373138011
 30
0.0
 40
2.4999999998267408
 50
89.9999999966649398
 51
255.7499673019719069
  0
ARC
  5
18AA
  8
0
  6
CONTINUOUS
 62
     3
 10
9536.5081151592894457
 20
2467.759899138648052
 30
0.0
 40
5000.0
 50
179.6849541360660112
 51
179.8912204642934967
  0
ARC
  5
18AB
  8
0
  6
CONTINUOUS
 62
     3
 10
4456.5171264919908936
 20
2481.252698837196931
 30
0.0
 40
14.0
 50
90.0
 51
180.0
  0
ARC
  5
18AC
  8
0
  6
CONTINUOUS
 62
     3
 10
4437.5171264919918031
 20
2460.252698837196931
 30
0.0
 40
5.0
 50
270.0
 51
0.0
  0
ARC
  5
18AD
  8
0
  6
CONTINUOUS
 62
     3
 10
4364.1868237120788763
 20
2456.252698837196931
 30
0.0
 40
50.0
 50
65.3800226728223919
 51
90.0
  0
ARC
  5
18AE
  8
0
  6
CONTINUOUS
 62
     3
 10
4382.5171264920491012
 20
2496.2526988371978405
 30
0.0
 40
6.0
 50
335.6044330801256024
 51
65.3800226728223919
  0
ARC
  5
18AF
  8
0
  6
CONTINUOUS
 62
     3
 10
4342.4456391799612902
 20
2514.4261933995289837
 30
0.0
 40
50.0
 50
308.4206174536071217
 51
335.6044330801256024
  0
ARC
  5
18B0
  8
0
  6
CONTINUOUS
 62
     3
 10
4355.5171264920500107
 20
2493.7526988371978405
 30
0.0
 40
23.0
 50
46.9311722273751784
 51
180.0
  0
ARC
  5
18B1
  8
0
  6
CONTINUOUS
 62
     3
 10
4551.5162022104486823
 20
2691.3794615775118473
 30
0.0
 40
5.0
 50
104.0993171682731031
 51
177.4340859117735931
  0
ARC
  5
18B2
  8
0
  6
CONTINUOUS
 62
     3
 10
9541.5081151592894457
 20
2467.759899138648052
 30
0.0
 40
5000.0
 50
177.4340859117735931
 51
179.8912151615490984
  0
ARC
  5
18B3
  8
0
  6
CONTINUOUS
 62
     3
 10
9536.5081151592894457
 20
2467.759899138648052
 30
0.0
 40
5000.0
 50
177.4340859117735931
 51
179.0603896085146971
  0
ARC
  5
18B4
  8
0
  6
CONTINUOUS
 62
     3
 10
9536.5081151592894457
 20
2467.759899138648052
 30
0.0
 40
4998.9999999999990905
 50
179.0602016329692958
 51
179.57036013607879
  0
ARC
  5
18B5
  8
0
  6
CONTINUOUS
 62
     3
 10
4570.51620221050689
 20
2473.32273699704092
 30
0.0
 40
2.0
 50
338.8059439994307809
 51
0.0
  0
ARC
  5
18B6
  8
0
  6
CONTINUOUS
 62
     3
 10
4570.51620221050689
 20
2473.32273699704092
 30
0.0
 40
8.0
 50
338.8059439994307809
 51
0.0
  0
POLYLINE
  5
18B7
  8
0
  6
CONTINUOUS
 62
     3
 10
4373.5171264920300018
 20
2496.2526988372101187
 30
0.0
 66
     1
 70
     8
  0
VERTEX
  8
0
  5
25CC
 10
4373.52
 20
2496.25
 30
0.00000
  70
    32
  0
VERTEX
  8
0
  5
25CD
 10
4373.52
 20
2496.38
 30
0.00000
  70
    32
  0
VERTEX
  8
0
  5
25CE
 10
4373.51
 20
2496.50
 30
0.00000
  70
    32
  0
VERTEX
  8
0
  5
25CF
 10
4373.51
 20
2496.62
 30
0.00000
  70
    32
  0
VERTEX
  8
0
  5
25D0
 10
4373.51
 20
2496.74
 30
0.00000
  70
    32
  0
VERTEX
  8
0
  5
25D1
 10
4373.50
 20
2496.87
 30
0.00000
  70
    32
  0
VERTEX
  8
0
  5
25D2
 10
4373.49
 20
2496.99
 30
0.00000
  70
    32
  0
VERTEX
  8
0
  5
25D3
 10
4373.48
 20
2497.11
 30
0.00000
  70
    32
  0
VERTEX
  8
0
  5
25D4
 10
4373.47
 20
2497.23
 30
0.00000
  70
    32
  0
VERTEX
  8
0
  5
25D5
 10
4373.46
 20
2497.35
 30
0.00000
  70
    32
  0
VERTEX
  8
0
  5
25D6
 10
4373.45
 20
2497.48
 30
0.00000
  70
    32
  0
VERTEX
  8
0
  5
25D7
 10
4373.43
 20
2497.60
 30
0.00000
  70
    32
  0
VERTEX
  8
0
  5
25D8
 10
4373.42
 20
2497.72
 30
0.00000
  70
    32
  0
VERTEX
  8
0
  5
25D9
 10
4373.40
 20
2497.84
 30
0.00000
  70
    32
  0
VERTEX
  8
0
  5
25DA
 10
4373.38
 20
2497.96
 30
0.00000
  70
    32
  0
VERTEX
  8
0
  5
25DB
 10
4373.36
 20
2498.08
 30
0.00000
  70
    32
  0
VERTEX
  8
0
  5
25DC
 10
4373.34
 20
2498.20
 30
0.00000
  70
    32
  0
VERTEX
  8
0
  5
25DD
 10
4373.31
 20
2498.32
 30
0.00000
  70
    32
  0
VERTEX
  8
0
  5
25DE
 10
4373.29
 20
2498.44
 30
0.00000
  70
    32
  0
VERTEX
  8
0
  5
25DF
 10
4373.26
 20
2498.56
 30
0.00000
  70
    32
  0
VERTEX
  8
0
  5
25E0
 10
4373.24
 20
2498.68
 30
0.00000
  70
    32
  0
VERTEX
  8
0
  5
25E1
 10
4373.21
 20
2498.80
 30
0.00000
  70
    32
  0
VERTEX
  8
0
  5
25E2
 10
4373.18
 20
2498.92
 30
0.00000
  70
    32
  0
VERTEX
  8
0
  5
25E3
 10
4373.15
 20
2499.04
 30
0.00000
  70
    32
  0
VERTEX
  8
0
  5
25E4
 10
4373.12
 20
2499.16
 30
0.00000
  70
    32
  0
VERTEX
  8
0
  5
25E5
 10
4373.08
 20
2499.27
 30
0.00000
  70
    32
  0
VERTEX
  8
0
  5
25E6
 10
4373.05
 20
2499.39
 30
0.00000
  70
    32
  0
VERTEX
  8
0
  5
25E7
 10
4373.01
 20
2499.51
 30
0.00000
  70
    32
  0
VERTEX
  8
0
  5
25E8
 10
4372.97
 20
2499.62
 30
0.00000
  70
    32
  0
VERTEX
  8
0
  5
25E9
 10
4372.93
 20
2499.74
 30
0.00000
  70
    32
  0
VERTEX
  8
0
  5
25EA
 10
4372.89
 20
2499.85
 30
0.00000
  70
    32
  0
VERTEX
  8
0
  5
25EB
 10
4372.85
 20
2499.97
 30
0.00000
  70
    32
  0
VERTEX
  8
0
  5
25EC
 10
4372.81
 20
2500.08
 30
0.00000
  70
    32
  0
VERTEX
  8
0
  5
25ED
 10
4372.76
 20
2500.19
 30
0.00000
  70
    32
  0
VERTEX
  8
0
  5
25EE
 10
4372.72
 20
2500.31
 30
0.00000
  70
    32
  0
VERTEX
  8
0
  5
25EF
 10
4372.67
 20
2500.42
 30
0.00000
  70
    32
  0
VERTEX
  8
0
  5
25F0
 10
4372.62
 20
2500.53
 30
0.00000
  70
    32
  0
VERTEX
  8
0
  5
25F1
 10
4372.57
 20
2500.64
 30
0.00000
  70
    32
  0
VERTEX
  8
0
  5
25F2
 10
4372.52
 20
2500.75
 30
0.00000
  70
    32
  0
VERTEX
  8
0
  5
25F3
 10
4372.47
 20
2500.86
 30
0.00000
  70
    32
  0
VERTEX
  8
0
  5
25F4
 10
4372.42
 20
2500.97
 30
0.00000
  70
    32
  0
VERTEX
  8
0
  5
25F5
 10
4372.36
 20
2501.07
 30
0.00000
  70
    32
  0
VERTEX
  8
0
  5
25F6
 10
4372.30
 20
2501.18
 30
0.00000
  70
    32
  0
VERTEX
  8
0
  5
25F7
 10
4372.25
 20
2501.29
 30
0.00000
  70
    32
  0
VERTEX
  8
0
  5
25F8
 10
4372.19
 20
2501.39
 30
0.00000
  70
    32
  0
VERTEX
  8
0
  5
25F9
 10
4372.13
 20
2501.50
 30
0.00000
  70
    32
  0
VERTEX
  8
0
  5
25FA
 10
4372.07
 20
2501.60
 30
0.00000
  70
    32
  0
VERTEX
  8
0
  5
25FB
 10
4372.01
 20
2501.71
 30
0.00000
  70
    32
  0
VERTEX
  8
0
  5
25FC
 10
4371.94
 20
2501.81
 30
0.00000
  70
    32
  0
VERTEX
  8
0
  5
25FD
 10
4371.88
 20
2501.91
 30
0.00000
  70
    32
  0
VERTEX
  8
0
  5
25FE
 10
4371.82
 20
2502.01
 30
0.00000
  70
    32
  0
VERTEX
  8
0
  5
25FF
 10
4371.75
 20
2502.11
 30
0.00000
  70
    32
  0
VERTEX
  8
0
  5
2600
 10
4371.68
 20
2502.21
 30
0.00000
  70
    32
  0
VERTEX
  8
0
  5
2601
 10
4371.61
 20
2502.31
 30
0.00000
  70
    32
  0
VERTEX
  8
0
  5
2602
 10
4371.54
 20
2502.41
 30
0.00000
  70
    32
  0
VERTEX
  8
0
  5
2603
 10
4371.47
 20
2502.50
 30
0.00000
  70
    32
  0
VERTEX
  8
0
  5
2604
 10
4371.40
 20
2502.60
 30
0.00000
  70
    32
  0
VERTEX
  8
0
  5
2605
 10
4371.33
 20
2502.69
 30
0.00000
  70
    32
  0
VERTEX
  8
0
  5
2606
 10
4371.25
 20
2502.78
 30
0.00000
  70
    32
  0
VERTEX
  8
0
  5
2607
 10
4371.18
 20
2502.88
 30
0.00000
  70
    32
  0
VERTEX
  8
0
  5
2608
 10
4371.10
 20
2502.97
 30
0.00000
  70
    32
  0
VERTEX
  8
0
  5
2609
 10
4371.02
 20
2503.06
 30
0.00000
  70
    32
  0
VERTEX
  8
0
  5
260A
 10
4370.94
 20
2503.15
 30
0.00000
  70
    32
  0
VERTEX
  8
0
  5
260B
 10
4370.86
 20
2503.24
 30
0.00000
  70
    32
  0
VERTEX
  8
0
  5
260C
 10
4370.78
 20
2503.32
 30
0.00000
  70
    32
  0
VERTEX
  8
0
  5
260D
 10
4370.70
 20
2503.41
 30
0.00000
  70
    32
  0
VERTEX
  8
0
  5
260E
 10
4370.62
 20
2503.50
 30
0.00000
  70
    32
  0
VERTEX
  8
0
  5
260F
 10
4370.54
 20
2503.58
 30
0.00000
  70
    32
  0
VERTEX
  8
0
  5
2610
 10
4370.45
 20
2503.66
 30
0.00000
  70
    32
  0
VERTEX
  8
0
  5
2611
 10
4370.37
 20
2503.74
 30
0.00000
  70
    32
  0
VERTEX
  8
0
  5
2612
 10
4370.28
 20
2503.82
 30
0.00000
  70
    32
  0
VERTEX
  8
0
  5
2613
 10
4370.19
 20
2503.90
 30
0.00000
  70
    32
  0
VERTEX
  8
0
  5
2614
 10
4370.11
 20
2503.98
 30
0.00000
  70
    32
  0
VERTEX
  8
0
  5
2615
 10
4370.02
 20
2504.06
 30
0.00000
  70
    32
  0
VERTEX
  8
0
  5
2616
 10
4369.93
 20
2504.14
 30
0.00000
  70
    32
  0
VERTEX
  8
0
  5
2617
 10
4369.84
 20
2504.21
 30
0.00000
  70
    32
  0
VERTEX
  8
0
  5
2618
 10
4369.74
 20
2504.28
 30
0.00000
  70
    32
  0
VERTEX
  8
0
  5
2619
 10
4369.65
 20
2504.36
 30
0.00000
  70
    32
  0
VERTEX
  8
0
  5
261A
 10
4369.56
 20
2504.43
 30
0.00000
  70
    32
  0
VERTEX
  8
0
  5
261B
 10
4369.47
 20
2504.50
 30
0.00000
  70
    32
  0
VERTEX
  8
0
  5
261C
 10
4369.37
 20
2504.57
 30
0.00000
  70
    32
  0
VERTEX
  8
0
  5
261D
 10
4369.27
 20
2504.63
 30
0.00000
  70
    32
  0
VERTEX
  8
0
  5
261E
 10
4369.18
 20
2504.70
 30
0.00000
  70
    32
  0
VERTEX
  8
0
  5
261F
 10
4369.08
 20
2504.77
 30
0.00000
  70
    32
  0
VERTEX
  8
0
  5
2620
 10
4368.98
 20
2504.83
 30
0.00000
  70
    32
  0
VERTEX
  8
0
  5
2621
 10
4368.88
 20
2504.89
 30
0.00000
  70
    32
  0
VERTEX
  8
0
  5
2622
 10
4368.79
 20
2504.95
 30
0.00000
  70
    32
  0
VERTEX
  8
0
  5
2623
 10
4368.69
 20
2505.01
 30
0.00000
  70
    32
  0
VERTEX
  8
0
  5
2624
 10
4368.59
 20
2505.07
 30
0.00000
  70
    32
  0
VERTEX
  8
0
  5
2625
 10
4368.48
 20
2505.13
 30
0.00000
  70
    32
  0
VERTEX
  8
0
  5
2626
 10
4368.38
 20
2505.18
 30
0.00000
  70
    32
  0
VERTEX
  8
0
  5
2627
 10
4368.28
 20
2505.24
 30
0.00000
  70
    32
  0
VERTEX
  8
0
  5
2628
 10
4368.18
 20
2505.29
 30
0.00000
  70
    32
  0
VERTEX
  8
0
  5
2629
 10
4368.07
 20
2505.34
 30
0.00000
  70
    32
  0
VERTEX
  8
0
  5
262A
 10
4367.97
 20
2505.39
 30
0.00000
  70
    32
  0
VERTEX
  8
0
  5
262B
 10
4367.86
 20
2505.44
 30
0.00000
  70
    32
  0
VERTEX
  8
0
  5
262C
 10
4367.76
 20
2505.49
 30
0.00000
  70
    32
  0
VERTEX
  8
0
  5
262D
 10
4367.65
 20
2505.54
 30
0.00000
  70
    32
  0
VERTEX
  8
0
  5
262E
 10
4367.54
 20
2505.58
 30
0.00000
  70
    32
  0
VERTEX
  8
0
  5
262F
 10
4367.44
 20
2505.63
 30
0.00000
  70
    32
  0
VERTEX
  8
0
  5
2630
 10
4367.33
 20
2505.67
 30
0.00000
  70
    32
  0
VERTEX
  8
0
  5
2631
 10
4367.22
 20
2505.71
 30
0.00000
  70
    32
  0
VERTEX
  8
0
  5
2632
 10
4367.11
 20
2505.75
 30
0.00000
  70
    32
  0
VERTEX
  8
0
  5
2633
 10
4367.00
 20
2505.79
 30
0.00000
  70
    32
  0
VERTEX
  8
0
  5
2634
 10
4366.90
 20
2505.82
 30
0.00000
  70
    32
  0
VERTEX
  8
0
  5
2635
 10
4366.79
 20
2505.86
 30
0.00000
  70
    32
  0
VERTEX
  8
0
  5
2636
 10
4366.68
 20
2505.89
 30
0.00000
  70
    32
  0
VERTEX
  8
0
  5
2637
 10
4366.56
 20
2505.92
 30
0.00000
  70
    32
  0
VERTEX
  8
0
  5
2638
 10
4366.45
 20
2505.95
 30
0.00000
  70
    32
  0
VERTEX
  8
0
  5
2639
 10
4366.34
 20
2505.98
 30
0.00000
  70
    32
  0
VERTEX
  8
0
  5
263A
 10
4366.23
 20
2506.01
 30
0.00000
  70
    32
  0
VERTEX
  8
0
  5
263B
 10
4366.12
 20
2506.04
 30
0.00000
  70
    32
  0
VERTEX
  8
0
  5
263C
 10
4366.01
 20
2506.06
 30
0.00000
  70
    32
  0
VERTEX
  8
0
  5
263D
 10
4365.89
 20
2506.08
 30
0.00000
  70
    32
  0
VERTEX
  8
0
  5
263E
 10
4365.78
 20
2506.11
 30
0.00000
  70
    32
  0
VERTEX
  8
0
  5
263F
 10
4365.67
 20
2506.13
 30
0.00000
  70
    32
  0
VERTEX
  8
0
  5
2640
 10
4365.56
 20
2506.14
 30
0.00000
  70
    32
  0
VERTEX
  8
0
  5
2641
 10
4365.44
 20
2506.16
 30
0.00000
  70
    32
  0
VERTEX
  8
0
  5
2642
 10
4365.33
 20
2506.18
 30
0.00000
  70
    32
  0
VERTEX
  8
0
  5
2643
 10
4365.22
 20
2506.19
 30
0.00000
  70
    32
  0
VERTEX
  8
0
  5
2644
 10
4365.10
 20
2506.20
 30
0.00000
  70
    32
  0
VERTEX
  8
0
  5
2645
 10
4364.99
 20
2506.22
 30
0.00000
  70
    32
  0
VERTEX
  8
0
  5
2646
 10
4364.87
 20
2506.23
 30
0.00000
  70
    32
  0
VERTEX
  8
0
  5
2647
 10
4364.76
 20
2506.23
 30
0.00000
  70
    32
  0
VERTEX
  8
0
  5
2648
 10
4364.64
 20
2506.24
 30
0.00000
  70
    32
  0
VERTEX
  8
0
  5
2649
 10
4364.53
 20
2506.25
 30
0.00000
  70
    32
  0
VERTEX
  8
0
  5
264A
 10
4364.42
 20
2506.25
 30
0.00000
  70
    32
  0
VERTEX
  8
0
  5
264B
 10
4364.30
 20
2506.25
 30
0.00000
  70
    32
  0
VERTEX
  8
0
  5
264C
 10
4364.19
 20
2506.25
 30
0.00000
  70
    32
  0
SEQEND
  8
0
  5
264D
  0
POLYLINE
  5
18B8
  8
0
  6
CONTINUOUS
 62
     3
 10
4540.8980727717998889
 20
2495.2526988371814696
 30
0.0
 66
     1
 70
     8
  0
VERTEX
  8
0
  5
264E
 10
4540.90
 20
2495.25
 30
0.00000
  70
    32
  0
VERTEX
  8
0
  5
264F
 10
4540.91
 20
2495.25
 30
0.00000
  70
    32
  0
VERTEX
  8
0
  5
2650
 10
4540.92
 20
2495.25
 30
0.00000
  70
    32
  0
VERTEX
  8
0
  5
2651
 10
4540.92
 20
2495.25
 30
0.00000
  70
    32
  0
VERTEX
  8
0
  5
2652
 10
4540.93
 20
2495.26
 30
0.00000
  70
    32
  0
VERTEX
  8
0
  5
2653
 10
4540.94
 20
2495.26
 30
0.00000
  70
    32
  0
VERTEX
  8
0
  5
2654
 10
4540.95
 20
2495.26
 30
0.00000
  70
    32
  0
VERTEX
  8
0
  5
2655
 10
4540.96
 20
2495.26
 30
0.00000
  70
    32
  0
VERTEX
  8
0
  5
2656
 10
4540.97
 20
2495.26
 30
0.00000
  70
    32
  0
VERTEX
  8
0
  5
2657
 10
4540.98
 20
2495.27
 30
0.00000
  70
    32
  0
VERTEX
  8
0
  5
2658
 10
4540.98
 20
2495.27
 30
0.00000
  70
    32
  0
VERTEX
  8
0
  5
2659
 10
4540.99
 20
2495.28
 30
0.00000
  70
    32
  0
VERTEX
  8
0
  5
265A
 10
4541.00
 20
2495.28
 30
0.00000
  70
    32
  0
VERTEX
  8
0
  5
265B
 10
4541.01
 20
2495.28
 30
0.00000
  70
    32
  0
VERTEX
  8
0
  5
265C
 10
4541.02
 20
2495.29
 30
0.00000
  70
    32
  0
VERTEX
  8
0
  5
265D
 10
4541.03
 20
2495.29
 30
0.00000
  70
    32
  0
VERTEX
  8
0
  5
265E
 10
4541.03
 20
2495.30
 30
0.00000
  70
    32
  0
VERTEX
  8
0
  5
265F
 10
4541.04
 20
2495.31
 30
0.00000
  70
    32
  0
VERTEX
  8
0
  5
2660
 10
4541.05
 20
2495.31
 30
0.00000
  70
    32
  0
VERTEX
  8
0
  5
2661
 10
4541.06
 20
2495.32
 30
0.00000
  70
    32
  0
VERTEX
  8
0
  5
2662
 10
4541.07
 20
2495.33
 30
0.00000
  70
    32
  0
VERTEX
  8
0
  5
2663
 10
4541.08
 20
2495.34
 30
0.00000
  70
    32
  0
VERTEX
  8
0
  5
2664
 10
4541.08
 20
2495.34
 30
0.00000
  70
    32
  0
VERTEX
  8
0
  5
2665
 10
4541.09
 20
2495.35
 30
0.00000
  70
    32
  0
VERTEX
  8
0
  5
2666
 10
4541.10
 20
2495.36
 30
0.00000
  70
    32
  0
VERTEX
  8
0
  5
2667
 10
4541.11
 20
2495.37
 30
0.00000
  70
    32
  0
VERTEX
  8
0
  5
2668
 10
4541.12
 20
2495.38
 30
0.00000
  70
    32
  0
VERTEX
  8
0
  5
2669
 10
4541.13
 20
2495.39
 30
0.00000
  70
    32
  0
VERTEX
  8
0
  5
266A
 10
4541.13
 20
2495.40
 30
0.00000
  70
    32
  0
VERTEX
  8
0
  5
266B
 10
4541.14
 20
2495.41
 30
0.00000
  70
    32
  0
VERTEX
  8
0
  5
266C
 10
4541.15
 20
2495.42
 30
0.00000
  70
    32
  0
VERTEX
  8
0
  5
266D
 10
4541.16
 20
2495.43
 30
0.00000
  70
    32
  0
VERTEX
  8
0
  5
266E
 10
4541.17
 20
2495.44
 30
0.00000
  70
    32
  0
VERTEX
  8
0
  5
266F
 10
4541.17
 20
2495.45
 30
0.00000
  70
    32
  0
VERTEX
  8
0
  5
2670
 10
4541.18
 20
2495.47
 30
0.00000
  70
    32
  0
VERTEX
  8
0
  5
2671
 10
4541.19
 20
2495.48
 30
0.00000
  70
    32
  0
VERTEX
  8
0
  5
2672
 10
4541.20
 20
2495.49
 30
0.00000
  70
    32
  0
VERTEX
  8
0
  5
2673
 10
4541.21
 20
2495.51
 30
0.00000
  70
    32
  0
VERTEX
  8
0
  5
2674
 10
4541.21
 20
2495.52
 30
0.00000
  70
    32
  0
VERTEX
  8
0
  5
2675
 10
4541.22
 20
2495.53
 30
0.00000
  70
    32
  0
VERTEX
  8
0
  5
2676
 10
4541.23
 20
2495.55
 30
0.00000
  70
    32
  0
VERTEX
  8
0
  5
2677
 10
4541.24
 20
2495.56
 30
0.00000
  70
    32
  0
VERTEX
  8
0
  5
2678
 10
4541.24
 20
2495.58
 30
0.00000
  70
    32
  0
VERTEX
  8
0
  5
2679
 10
4541.25
 20
2495.59
 30
0.00000
  70
    32
  0
VERTEX
  8
0
  5
267A
 10
4541.26
 20
2495.61
 30
0.00000
  70
    32
  0
VERTEX
  8
0
  5
267B
 10
4541.27
 20
2495.62
 30
0.00000
  70
    32
  0
VERTEX
  8
0
  5
267C
 10
4541.27
 20
2495.64
 30
0.00000
  70
    32
  0
VERTEX
  8
0
  5
267D
 10
4541.28
 20
2495.66
 30
0.00000
  70
    32
  0
VERTEX
  8
0
  5
267E
 10
4541.29
 20
2495.67
 30
0.00000
  70
    32
  0
VERTEX
  8
0
  5
267F
 10
4541.29
 20
2495.69
 30
0.00000
  70
    32
  0
VERTEX
  8
0
  5
2680
 10
4541.30
 20
2495.71
 30
0.00000
  70
    32
  0
VERTEX
  8
0
  5
2681
 10
4541.31
 20
2495.73
 30
0.00000
  70
    32
  0
VERTEX
  8
0
  5
2682
 10
4541.32
 20
2495.74
 30
0.00000
  70
    32
  0
VERTEX
  8
0
  5
2683
 10
4541.32
 20
2495.76
 30
0.00000
  70
    32
  0
VERTEX
  8
0
  5
2684
 10
4541.33
 20
2495.78
 30
0.00000
  70
    32
  0
VERTEX
  8
0
  5
2685
 10
4541.34
 20
2495.80
 30
0.00000
  70
    32
  0
VERTEX
  8
0
  5
2686
 10
4541.34
 20
2495.82
 30
0.00000
  70
    32
  0
VERTEX
  8
0
  5
2687
 10
4541.35
 20
2495.84
 30
0.00000
  70
    32
  0
VERTEX
  8
0
  5
2688
 10
4541.36
 20
2495.86
 30
0.00000
  70
    32
  0
VERTEX
  8
0
  5
2689
 10
4541.36
 20
2495.88
 30
0.00000
  70
    32
  0
VERTEX
  8
0
  5
268A
 10
4541.37
 20
2495.90
 30
0.00000
  70
    32
  0
VERTEX
  8
0
  5
268B
 10
4541.37
 20
2495.92
 30
0.00000
  70
    32
  0
VERTEX
  8
0
  5
268C
 10
4541.38
 20
2495.94
 30
0.00000
  70
    32
  0
VERTEX
  8
0
  5
268D
 10
4541.39
 20
2495.96
 30
0.00000
  70
    32
  0
VERTEX
  8
0
  5
268E
 10
4541.39
 20
2495.98
 30
0.00000
  70
    32
  0
VERTEX
  8
0
  5
268F
 10
4541.40
 20
2496.01
 30
0.00000
  70
    32
  0
VERTEX
  8
0
  5
2690
 10
4541.41
 20
2496.03
 30
0.00000
  70
    32
  0
VERTEX
  8
0
  5
2691
 10
4541.41
 20
2496.05
 30
0.00000
  70
    32
  0
VERTEX
  8
0
  5
2692
 10
4541.42
 20
2496.07
 30
0.00000
  70
    32
  0
VERTEX
  8
0
  5
2693
 10
4541.42
 20
2496.10
 30
0.00000
  70
    32
  0
VERTEX
  8
0
  5
2694
 10
4541.43
 20
2496.12
 30
0.00000
  70
    32
  0
VERTEX
  8
0
  5
2695
 10
4541.43
 20
2496.14
 30
0.00000
  70
    32
  0
VERTEX
  8
0
  5
2696
 10
4541.44
 20
2496.17
 30
0.00000
  70
    32
  0
VERTEX
  8
0
  5
2697
 10
4541.44
 20
2496.19
 30
0.00000
  70
    32
  0
VERTEX
  8
0
  5
2698
 10
4541.45
 20
2496.21
 30
0.00000
  70
    32
  0
VERTEX
  8
0
  5
2699
 10
4541.46
 20
2496.24
 30
0.00000
  70
    32
  0
VERTEX
  8
0
  5
269A
 10
4541.46
 20
2496.26
 30
0.00000
  70
    32
  0
VERTEX
  8
0
  5
269B
 10
4541.47
 20
2496.29
 30
0.00000
  70
    32
  0
VERTEX
  8
0
  5
269C
 10
4541.47
 20
2496.31
 30
0.00000
  70
    32
  0
VERTEX
  8
0
  5
269D
 10
4541.48
 20
2496.34
 30
0.00000
  70
    32
  0
VERTEX
  8
0
  5
269E
 10
4541.48
 20
2496.36
 30
0.00000
  70
    32
  0
VERTEX
  8
0
  5
269F
 10
4541.48
 20
2496.39
 30
0.00000
  70
    32
  0
VERTEX
  8
0
  5
26A0
 10
4541.49
 20
2496.42
 30
0.00000
  70
    32
  0
VERTEX
  8
0
  5
26A1
 10
4541.49
 20
2496.44
 30
0.00000
  70
    32
  0
VERTEX
  8
0
  5
26A2
 10
4541.50
 20
2496.47
 30
0.00000
  70
    32
  0
VERTEX
  8
0
  5
26A3
 10
4541.50
 20
2496.49
 30
0.00000
  70
    32
  0
VERTEX
  8
0
  5
26A4
 10
4541.51
 20
2496.52
 30
0.00000
  70
    32
  0
VERTEX
  8
0
  5
26A5
 10
4541.51
 20
2496.55
 30
0.00000
  70
    32
  0
VERTEX
  8
0
  5
26A6
 10
4541.52
 20
2496.57
 30
0.00000
  70
    32
  0
VERTEX
  8
0
  5
26A7
 10
4541.52
 20
2496.60
 30
0.00000
  70
    32
  0
VERTEX
  8
0
  5
26A8
 10
4541.52
 20
2496.63
 30
0.00000
  70
    32
  0
VERTEX
  8
0
  5
26A9
 10
4541.53
 20
2496.66
 30
0.00000
  70
    32
  0
VERTEX
  8
0
  5
26AA
 10
4541.53
 20
2496.68
 30
0.00000
  70
    32
  0
VERTEX
  8
0
  5
26AB
 10
4541.53
 20
2496.71
 30
0.00000
  70
    32
  0
VERTEX
  8
0
  5
26AC
 10
4541.54
 20
2496.74
 30
0.00000
  70
    32
  0
VERTEX
  8
0
  5
26AD
 10
4541.54
 20
2496.77
 30
0.00000
  70
    32
  0
VERTEX
  8
0
  5
26AE
 10
4541.54
 20
2496.80
 30
0.00000
  70
    32
  0
VERTEX
  8
0
  5
26AF
 10
4541.55
 20
2496.82
 30
0.00000
  70
    32
  0
VERTEX
  8
0
  5
26B0
 10
4541.55
 20
2496.85
 30
0.00000
  70
    32
  0
VERTEX
  8
0
  5
26B1
 10
4541.55
 20
2496.88
 30
0.00000
  70
    32
  0
VERTEX
  8
0
  5
26B2
 10
4541.56
 20
2496.91
 30
0.00000
  70
    32
  0
VERTEX
  8
0
  5
26B3
 10
4541.56
 20
2496.94
 30
0.00000
  70
    32
  0
VERTEX
  8
0
  5
26B4
 10
4541.56
 20
2496.97
 30
0.00000
  70
    32
  0
VERTEX
  8
0
  5
26B5
 10
4541.57
 20
2497.00
 30
0.00000
  70
    32
  0
VERTEX
  8
0
  5
26B6
 10
4541.57
 20
2497.03
 30
0.00000
  70
    32
  0
VERTEX
  8
0
  5
26B7
 10
4541.57
 20
2497.06
 30
0.00000
  70
    32
  0
VERTEX
  8
0
  5
26B8
 10
4541.57
 20
2497.09
 30
0.00000
  70
    32
  0
VERTEX
  8
0
  5
26B9
 10
4541.57
 20
2497.12
 30
0.00000
  70
    32
  0
VERTEX
  8
0
  5
26BA
 10
4541.58
 20
2497.15
 30
0.00000
  70
    32
  0
VERTEX
  8
0
  5
26BB
 10
4541.58
 20
2497.18
 30
0.00000
  70
    32
  0
VERTEX
  8
0
  5
26BC
 10
4541.58
 20
2497.20
 30
0.00000
  70
    32
  0
VERTEX
  8
0
  5
26BD
 10
4541.58
 20
2497.23
 30
0.00000
  70
    32
  0
VERTEX
  8
0
  5
26BE
 10
4541.58
 20
2497.26
 30
0.00000
  70
    32
  0
VERTEX
  8
0
  5
26BF
 10
4541.59
 20
2497.30
 30
0.00000
  70
    32
  0
VERTEX
  8
0
  5
26C0
 10
4541.59
 20
2497.33
 30
0.00000
  70
    32
  0
VERTEX
  8
0
  5
26C1
 10
4541.59
 20
2497.36
 30
0.00000
  70
    32
  0
VERTEX
  8
0
  5
26C2
 10
4541.59
 20
2497.39
 30
0.00000
  70
    32
  0
VERTEX
  8
0
  5
26C3
 10
4541.59
 20
2497.42
 30
0.00000
  70
    32
  0
VERTEX
  8
0
  5
26C4
 10
4541.59
 20
2497.45
 30
0.00000
  70
    32
  0
VERTEX
  8
0
  5
26C5
 10
4541.59
 20
2497.48
 30
0.00000
  70
    32
  0
VERTEX
  8
0
  5
26C6
 10
4541.59
 20
2497.51
 30
0.00000
  70
    32
  0
VERTEX
  8
0
  5
26C7
 10
4541.60
 20
2497.54
 30
0.00000
  70
    32
  0
VERTEX
  8
0
  5
26C8
 10
4541.60
 20
2497.57
 30
0.00000
  70
    32
  0
VERTEX
  8
0
  5
26C9
 10
4541.60
 20
2497.60
 30
0.00000
  70
    32
  0
VERTEX
  8
0
  5
26CA
 10
4541.60
 20
2497.63
 30
0.00000
  70
    32
  0
VERTEX
  8
0
  5
26CB
 10
4541.60
 20
2497.66
 30
0.00000
  70
    32
  0
VERTEX
  8
0
  5
26CC
 10
4541.60
 20
2497.69
 30
0.00000
  70
    32
  0
VERTEX
  8
0
  5
26CD
 10
4541.60
 20
2497.72
 30
0.00000
  70
    32
  0
VERTEX
  8
0
  5
26CE
 10
4541.60
 20
2497.75
 30
0.00000
  70
    32
  0
SEQEND
  8
0
  5
26CF
  0
POLYLINE
  5
18B9
  8
0
  6
CONTINUOUS
 62
     3
 10
4541.5980727716369074
 20
2502.7526988373601853
 30
0.0
 66
     1
 70
     8
  0
VERTEX
  8
0
  5
26D0
 10
4541.60
 20
2502.75
 30
0.00000
  70
    32
  0
VERTEX
  8
0
  5
26D1
 10
4541.60
 20
2502.78
 30
0.00000
  70
    32
  0
VERTEX
  8
0
  5
26D2
 10
4541.60
 20
2502.81
 30
0.00000
  70
    32
  0
VERTEX
  8
0
  5
26D3
 10
4541.60
 20
2502.84
 30
0.00000
  70
    32
  0
VERTEX
  8
0
  5
26D4
 10
4541.60
 20
2502.88
 30
0.00000
  70
    32
  0
VERTEX
  8
0
  5
26D5
 10
4541.60
 20
2502.91
 30
0.00000
  70
    32
  0
VERTEX
  8
0
  5
26D6
 10
4541.60
 20
2502.94
 30
0.00000
  70
    32
  0
VERTEX
  8
0
  5
26D7
 10
4541.60
 20
2502.97
 30
0.00000
  70
    32
  0
VERTEX
  8
0
  5
26D8
 10
4541.59
 20
2503.00
 30
0.00000
  70
    32
  0
VERTEX
  8
0
  5
26D9
 10
4541.59
 20
2503.03
 30
0.00000
  70
    32
  0
VERTEX
  8
0
  5
26DA
 10
4541.59
 20
2503.06
 30
0.00000
  70
    32
  0
VERTEX
  8
0
  5
26DB
 10
4541.59
 20
2503.09
 30
0.00000
  70
    32
  0
VERTEX
  8
0
  5
26DC
 10
4541.59
 20
2503.12
 30
0.00000
  70
    32
  0
VERTEX
  8
0
  5
26DD
 10
4541.59
 20
2503.15
 30
0.00000
  70
    32
  0
VERTEX
  8
0
  5
26DE
 10
4541.59
 20
2503.18
 30
0.00000
  70
    32
  0
VERTEX
  8
0
  5
26DF
 10
4541.59
 20
2503.21
 30
0.00000
  70
    32
  0
VERTEX
  8
0
  5
26E0
 10
4541.58
 20
2503.24
 30
0.00000
  70
    32
  0
VERTEX
  8
0
  5
26E1
 10
4541.58
 20
2503.27
 30
0.00000
  70
    32
  0
VERTEX
  8
0
  5
26E2
 10
4541.58
 20
2503.30
 30
0.00000
  70
    32
  0
VERTEX
  8
0
  5
26E3
 10
4541.58
 20
2503.33
 30
0.00000
  70
    32
  0
VERTEX
  8
0
  5
26E4
 10
4541.58
 20
2503.36
 30
0.00000
  70
    32
  0
VERTEX
  8
0
  5
26E5
 10
4541.57
 20
2503.39
 30
0.00000
  70
    32
  0
VERTEX
  8
0
  5
26E6
 10
4541.57
 20
2503.42
 30
0.00000
  70
    32
  0
VERTEX
  8
0
  5
26E7
 10
4541.57
 20
2503.45
 30
0.00000
  70
    32
  0
VERTEX
  8
0
  5
26E8
 10
4541.57
 20
2503.48
 30
0.00000
  70
    32
  0
VERTEX
  8
0
  5
26E9
 10
4541.57
 20
2503.51
 30
0.00000
  70
    32
  0
VERTEX
  8
0
  5
26EA
 10
4541.56
 20
2503.54
 30
0.00000
  70
    32
  0
VERTEX
  8
0
  5
26EB
 10
4541.56
 20
2503.57
 30
0.00000
  70
    32
  0
VERTEX
  8
0
  5
26EC
 10
4541.56
 20
2503.59
 30
0.00000
  70
    32
  0
VERTEX
  8
0
  5
26ED
 10
4541.55
 20
2503.62
 30
0.00000
  70
    32
  0
VERTEX
  8
0
  5
26EE
 10
4541.55
 20
2503.65
 30
0.00000
  70
    32
  0
VERTEX
  8
0
  5
26EF
 10
4541.55
 20
2503.68
 30
0.00000
  70
    32
  0
VERTEX
  8
0
  5
26F0
 10
4541.54
 20
2503.71
 30
0.00000
  70
    32
  0
VERTEX
  8
0
  5
26F1
 10
4541.54
 20
2503.74
 30
0.00000
  70
    32
  0
VERTEX
  8
0
  5
26F2
 10
4541.54
 20
2503.77
 30
0.00000
  70
    32
  0
VERTEX
  8
0
  5
26F3
 10
4541.53
 20
2503.79
 30
0.00000
  70
    32
  0
VERTEX
  8
0
  5
26F4
 10
4541.53
 20
2503.82
 30
0.00000
  70
    32
  0
VERTEX
  8
0
  5
26F5
 10
4541.53
 20
2503.85
 30
0.00000
  70
    32
  0
VERTEX
  8
0
  5
26F6
 10
4541.52
 20
2503.88
 30
0.00000
  70
    32
  0
VERTEX
  8
0
  5
26F7
 10
4541.52
 20
2503.90
 30
0.00000
  70
    32
  0
VERTEX
  8
0
  5
26F8
 10
4541.52
 20
2503.93
 30
0.00000
  70
    32
  0
VERTEX
  8
0
  5
26F9
 10
4541.51
 20
2503.96
 30
0.00000
  70
    32
  0
VERTEX
  8
0
  5
26FA
 10
4541.51
 20
2503.98
 30
0.00000
  70
    32
  0
VERTEX
  8
0
  5
26FB
 10
4541.50
 20
2504.01
 30
0.00000
  70
    32
  0
VERTEX
  8
0
  5
26FC
 10
4541.50
 20
2504.04
 30
0.00000
  70
    32
  0
VERTEX
  8
0
  5
26FD
 10
4541.49
 20
2504.06
 30
0.00000
  70
    32
  0
VERTEX
  8
0
  5
26FE
 10
4541.49
 20
2504.09
 30
0.00000
  70
    32
  0
VERTEX
  8
0
  5
26FF
 10
4541.48
 20
2504.12
 30
0.00000
  70
    32
  0
VERTEX
  8
0
  5
2700
 10
4541.48
 20
2504.14
 30
0.00000
  70
    32
  0
VERTEX
  8
0
  5
2701
 10
4541.48
 20
2504.17
 30
0.00000
  70
    32
  0
VERTEX
  8
0
  5
2702
 10
4541.47
 20
2504.19
 30
0.00000
  70
    32
  0
VERTEX
  8
0
  5
2703
 10
4541.47
 20
2504.22
 30
0.00000
  70
    32
  0
VERTEX
  8
0
  5
2704
 10
4541.46
 20
2504.24
 30
0.00000
  70
    32
  0
VERTEX
  8
0
  5
2705
 10
4541.46
 20
2504.27
 30
0.00000
  70
    32
  0
VERTEX
  8
0
  5
2706
 10
4541.45
 20
2504.29
 30
0.00000
  70
    32
  0
VERTEX
  8
0
  5
2707
 10
4541.44
 20
2504.31
 30
0.00000
  70
    32
  0
VERTEX
  8
0
  5
2708
 10
4541.44
 20
2504.34
 30
0.00000
  70
    32
  0
VERTEX
  8
0
  5
2709
 10
4541.43
 20
2504.36
 30
0.00000
  70
    32
  0
VERTEX
  8
0
  5
270A
 10
4541.43
 20
2504.39
 30
0.00000
  70
    32
  0
VERTEX
  8
0
  5
270B
 10
4541.42
 20
2504.41
 30
0.00000
  70
    32
  0
VERTEX
  8
0
  5
270C
 10
4541.42
 20
2504.43
 30
0.00000
  70
    32
  0
VERTEX
  8
0
  5
270D
 10
4541.41
 20
2504.45
 30
0.00000
  70
    32
  0
VERTEX
  8
0
  5
270E
 10
4541.41
 20
2504.48
 30
0.00000
  70
    32
  0
VERTEX
  8
0
  5
270F
 10
4541.40
 20
2504.50
 30
0.00000
  70
    32
  0
VERTEX
  8
0
  5
2710
 10
4541.39
 20
2504.52
 30
0.00000
  70
    32
  0
VERTEX
  8
0
  5
2711
 10
4541.39
 20
2504.54
 30
0.00000
  70
    32
  0
VERTEX
  8
0
  5
2712
 10
4541.38
 20
2504.56
 30
0.00000
  70
    32
  0
VERTEX
  8
0
  5
2713
 10
4541.37
 20
2504.58
 30
0.00000
  70
    32
  0
VERTEX
  8
0
  5
2714
 10
4541.37
 20
2504.61
 30
0.00000
  70
    32
  0
VERTEX
  8
0
  5
2715
 10
4541.36
 20
2504.63
 30
0.00000
  70
    32
  0
VERTEX
  8
0
  5
2716
 10
4541.36
 20
2504.65
 30
0.00000
  70
    32
  0
VERTEX
  8
0
  5
2717
 10
4541.35
 20
2504.67
 30
0.00000
  70
    32
  0
VERTEX
  8
0
  5
2718
 10
4541.34
 20
2504.69
 30
0.00000
  70
    32
  0
VERTEX
  8
0
  5
2719
 10
4541.34
 20
2504.70
 30
0.00000
  70
    32
  0
VERTEX
  8
0
  5
271A
 10
4541.33
 20
2504.72
 30
0.00000
  70
    32
  0
VERTEX
  8
0
  5
271B
 10
4541.32
 20
2504.74
 30
0.00000
  70
    32
  0
VERTEX
  8
0
  5
271C
 10
4541.32
 20
2504.76
 30
0.00000
  70
    32
  0
VERTEX
  8
0
  5
271D
 10
4541.31
 20
2504.78
 30
0.00000
  70
    32
  0
VERTEX
  8
0
  5
271E
 10
4541.30
 20
2504.80
 30
0.00000
  70
    32
  0
VERTEX
  8
0
  5
271F
 10
4541.29
 20
2504.81
 30
0.00000
  70
    32
  0
VERTEX
  8
0
  5
2720
 10
4541.29
 20
2504.83
 30
0.00000
  70
    32
  0
VERTEX
  8
0
  5
2721
 10
4541.28
 20
2504.85
 30
0.00000
  70
    32
  0
VERTEX
  8
0
  5
2722
 10
4541.27
 20
2504.86
 30
0.00000
  70
    32
  0
VERTEX
  8
0
  5
2723
 10
4541.27
 20
2504.88
 30
0.00000
  70
    32
  0
VERTEX
  8
0
  5
2724
 10
4541.26
 20
2504.90
 30
0.00000
  70
    32
  0
VERTEX
  8
0
  5
2725
 10
4541.25
 20
2504.91
 30
0.00000
  70
    32
  0
VERTEX
  8
0
  5
2726
 10
4541.24
 20
2504.93
 30
0.00000
  70
    32
  0
VERTEX
  8
0
  5
2727
 10
4541.24
 20
2504.94
 30
0.00000
  70
    32
  0
VERTEX
  8
0
  5
2728
 10
4541.23
 20
2504.96
 30
0.00000
  70
    32
  0
VERTEX
  8
0
  5
2729
 10
4541.22
 20
2504.97
 30
0.00000
  70
    32
  0
VERTEX
  8
0
  5
272A
 10
4541.21
 20
2504.99
 30
0.00000
  70
    32
  0
VERTEX
  8
0
  5
272B
 10
4541.21
 20
2505.00
 30
0.00000
  70
    32
  0
VERTEX
  8
0
  5
272C
 10
4541.20
 20
2505.01
 30
0.00000
  70
    32
  0
VERTEX
  8
0
  5
272D
 10
4541.19
 20
2505.03
 30
0.00000
  70
    32
  0
VERTEX
  8
0
  5
272E
 10
4541.18
 20
2505.04
 30
0.00000
  70
    32
  0
VERTEX
  8
0
  5
272F
 10
4541.17
 20
2505.05
 30
0.00000
  70
    32
  0
VERTEX
  8
0
  5
2730
 10
4541.17
 20
2505.06
 30
0.00000
  70
    32
  0
VERTEX
  8
0
  5
2731
 10
4541.16
 20
2505.07
 30
0.00000
  70
    32
  0
VERTEX
  8
0
  5
2732
 10
4541.15
 20
2505.09
 30
0.00000
  70
    32
  0
VERTEX
  8
0
  5
2733
 10
4541.14
 20
2505.10
 30
0.00000
  70
    32
  0
VERTEX
  8
0
  5
2734
 10
4541.13
 20
2505.11
 30
0.00000
  70
    32
  0
VERTEX
  8
0
  5
2735
 10
4541.13
 20
2505.12
 30
0.00000
  70
    32
  0
VERTEX
  8
0
  5
2736
 10
4541.12
 20
2505.13
 30
0.00000
  70
    32
  0
VERTEX
  8
0
  5
2737
 10
4541.11
 20
2505.14
 30
0.00000
  70
    32
  0
VERTEX
  8
0
  5
2738
 10
4541.10
 20
2505.15
 30
0.00000
  70
    32
  0
VERTEX
  8
0
  5
2739
 10
4541.09
 20
2505.15
 30
0.00000
  70
    32
  0
VERTEX
  8
0
  5
273A
 10
4541.08
 20
2505.16
 30
0.00000
  70
    32
  0
VERTEX
  8
0
  5
273B
 10
4541.08
 20
2505.17
 30
0.00000
  70
    32
  0
VERTEX
  8
0
  5
273C
 10
4541.07
 20
2505.18
 30
0.00000
  70
    32
  0
VERTEX
  8
0
  5
273D
 10
4541.06
 20
2505.19
 30
0.00000
  70
    32
  0
VERTEX
  8
0
  5
273E
 10
4541.05
 20
2505.19
 30
0.00000
  70
    32
  0
VERTEX
  8
0
  5
273F
 10
4541.04
 20
2505.20
 30
0.00000
  70
    32
  0
VERTEX
  8
0
  5
2740
 10
4541.03
 20
2505.20
 30
0.00000
  70
    32
  0
VERTEX
  8
0
  5
2741
 10
4541.03
 20
2505.21
 30
0.00000
  70
    32
  0
VERTEX
  8
0
  5
2742
 10
4541.02
 20
2505.22
 30
0.00000
  70
    32
  0
VERTEX
  8
0
  5
2743
 10
4541.01
 20
2505.22
 30
0.00000
  70
    32
  0
VERTEX
  8
0
  5
2744
 10
4541.00
 20
2505.23
 30
0.00000
  70
    32
  0
VERTEX
  8
0
  5
2745
 10
4540.99
 20
2505.23
 30
0.00000
  70
    32
  0
VERTEX
  8
0
  5
2746
 10
4540.98
 20
2505.23
 30
0.00000
  70
    32
  0
VERTEX
  8
0
  5
2747
 10
4540.98
 20
2505.24
 30
0.00000
  70
    32
  0
VERTEX
  8
0
  5
2748
 10
4540.97
 20
2505.24
 30
0.00000
  70
    32
  0
VERTEX
  8
0
  5
2749
 10
4540.96
 20
2505.24
 30
0.00000
  70
    32
  0
VERTEX
  8
0
  5
274A
 10
4540.95
 20
2505.25
 30
0.00000
  70
    32
  0
VERTEX
  8
0
  5
274B
 10
4540.94
 20
2505.25
 30
0.00000
  70
    32
  0
VERTEX
  8
0
  5
274C
 10
4540.93
 20
2505.25
 30
0.00000
  70
    32
  0
VERTEX
  8
0
  5
274D
 10
4540.92
 20
2505.25
 30
0.00000
  70
    32
  0
VERTEX
  8
0
  5
274E
 10
4540.92
 20
2505.25
 30
0.00000
  70
    32
  0
VERTEX
  8
0
  5
274F
 10
4540.91
 20
2505.25
 30
0.00000
  70
    32
  0
VERTEX
  8
0
  5
2750
 10
4540.90
 20
2505.25
 30
0.00000
  70
    32
  0
SEQEND
  8
0
  5
2751
  0
LINE
  5
18BA
  8
0
  6
CONTINUOUS
 62
     4
 10
4610.5162122250767425
 20
2196.4527908377349377
 30
0.0
 11
4610.5162122250767425
 21
2186.4527908377349377
 31
0.0
  0
LINE
  5
18BB
  8
0
  6
CONTINUOUS
 62
     4
 10
4610.5162122250767425
 20
2196.4527908377349377
 30
0.0
 11
4611.516212225075833
 21
2196.4527908377349377
 31
0.0
  0
LINE
  5
18BC
  8
0
  6
CONTINUOUS
 62
     4
 10
4611.516212225075833
 20
2187.4527908377349377
 30
0.0
 11
4620.516212225075833
 21
2187.4527908377349377
 31
0.0
  0
LINE
  5
18BD
  8
0
  6
CONTINUOUS
 62
     4
 10
4610.5162122250767425
 20
2186.4527908377349377
 30
0.0
 11
4621.5162122250767425
 21
2186.4527908377349377
 31
0.0
  0
LINE
  5
18BE
  8
0
  6
CONTINUOUS
 62
     4
 10
4611.5161955165667678
 20
2892.4527908377349377
 30
0.0
 11
4611.5162122251349501
 21
2187.4527908377349377
 31
0.0
  0
LINE
  5
18BF
  8
0
  6
CONTINUOUS
 62
     4
 10
4610.5161955167995984
 20
2893.4527908377349377
 30
0.0
 11
4610.5161955167995984
 21
2883.4527908377349377
 31
0.0
  0
LINE
  5
18C0
  8
0
  6
CONTINUOUS
 62
     4
 10
4610.5161955167995984
 20
2883.4527908377349377
 30
0.0
 11
4611.5161955167995984
 21
2883.4527908377349377
 31
0.0
  0
LINE
  5
18C1
  8
0
  6
CONTINUOUS
 62
     4
 10
4610.5161955167995984
 20
2893.4527908377349377
 30
0.0
 11
4621.5161955167995984
 21
2893.4527908377349377
 31
0.0
  0
LINE
  5
18C2
  8
0
  6
CONTINUOUS
 62
     4
 10
4620.5162122251349501
 20
2212.4527908378508982
 30
0.0
 11
4621.5162122250767425
 21
2212.4527908377349377
 31
0.0
  0
LINE
  5
18C3
  8
0
  6
CONTINUOUS
 62
     4
 10
4620.5162122251349501
 20
2212.4527908378508982
 30
0.0
 11
4620.516212225075833
 21
2187.4527908377349377
 31
0.0
  0
LINE
  5
18C4
  8
0
  6
CONTINUOUS
 62
     4
 10
4620.5161955168014174
 20
2856.4527908377349377
 30
0.0
 11
4621.5161955167995984
 21
2856.4527908377349377
 31
0.0
  0
LINE
  5
18C5
  8
0
  6
CONTINUOUS
 62
     4
 10
4620.5161955168014174
 20
2892.4527908377349377
 30
0.0
 11
4620.5161955168014174
 21
2856.4527908377349377
 31
0.0
  0
LINE
  5
18C6
  8
0
  6
CONTINUOUS
 62
     4
 10
4611.5161955167995984
 20
2892.4527908377349377
 30
0.0
 11
4620.5161955168014174
 21
2892.4527908377349377
 31
0.0
  0
LINE
  5
18C7
  8
0
  6
CONTINUOUS
 62
     4
 10
4616.5161955167995984
 20
2892.4527908377349377
 30
0.0
 11
4616.5161955167995984
 21
2611.9527908377349377
 31
0.0
  0
LINE
  5
18C8
  8
0
  6
CONTINUOUS
 62
     4
 10
4616.5161955167995984
 20
2593.9527908377349377
 30
0.0
 11
4616.5161955167995984
 21
2187.4527908377349377
 31
0.0
  0
POLYLINE
  5
18C9
  8
0
  6
CONTINUOUS
 62
     3
 66
     1
 10
0.0
 20
0.0
 30
0.0
  0
VERTEX
  5
18CA
  8
0
  6
CONTINUOUS
 62
     3
 10
4585.316206150862854
 20
2386.2528020206950714
 30
0.0
  0
VERTEX
  5
18CB
  8
0
  6
CONTINUOUS
 62
     3
 10
4585.316206150862854
 20
2418.2528020206959809
 30
0.0
  0
SEQEND
  5
18CC
  8
0
  6
CONTINUOUS
 62
     3
  0
LINE
  5
18CD
  8
0
  6
CONTINUOUS
 62
     3
 10
4603.316206150862854
 20
2420.2528020206959809
 30
0.0
 11
4603.316206150862854
 21
2384.2528020206959809
 31
0.0
  0
LINE
  5
18CE
  8
0
  6
CONTINUOUS
 62
     3
 10
4605.516206150873586
 20
2424.7528020206959809
 30
0.0
 11
4605.516206150873586
 21
2379.7528020206950714
 31
0.0
1001
GENIUS_GENREC_14
1002
{
1000
PYDIR
1011
4605.516206150873586
1021
0.0
1031
0.0
1021
2430.7528020206959809
1031
0.0
1002
}
1002
{
1000
PXDIR
1011
4611.516206150873586
1021
0.0
1031
0.0
1021
2373.7528020206959809
1031
0.0
1002
}
1002
{
1000
PORI
1011
4605.516206150873586
1021
0.0
1031
0.0
1021
2373.7528020206959809
1031
0.0
1002
}
1002
{
1000
PINS
1011
4605.516206150873586
1021
0.0
1031
0.0
1021
2373.7528020206959809
1031
0.0
1002
}
1002
{
1000
PINS2
1011
4611.516206150873586
1021
0.0
1031
0.0
1021
2430.7528020206959809
1031
0.0
1002
}
1002
{
1000
C
1070
     1
1002
}
1001
GENIUS_GENODEF_13
1002
{
1000
HIER
1070
     0
1002
}
1002
{
1000
MANEDIT
1070
     0
1002
}
1002
{
1000
NOSEL
1070
     0
1002
}
1002
{
1000
BEHIND
1070
     0
1002
}
1002
{
1000
REACTOR
1002
}
1001
GENIUS_GENOBJ-N-REC_13
1002
{
1000
OWNER
1000
GEN
1002
}
  0
LINE
  5
18CF
  8
0
  6
CONTINUOUS
 62
     3
 10
4358.0161942103877664
 20
2453.2528020206959809
 30
0.0
 11
4358.016194210445974
 21
2392.2528020206959809
 31
0.0
  0
POLYLINE
  5
18D0
  8
0
  6
CONTINUOUS
 62
     3
 66
     1
 10
0.0
 20
0.0
 30
0.0
 70
     1
  0
VERTEX
  5
18D1
  8
0
  6
CONTINUOUS
 62
     3
 10
4359.516194210445974
 20
2380.2528020206959809
 30
0.0
  0
VERTEX
  5
18D2
  8
0
  6
CONTINUOUS
 62
     3
 10
4363.516194210445974
 20
2415.2528020206959809
 30
0.0
  0
VERTEX
  5
18D3
  8
0
  6
CONTINUOUS
 62
     3
 10
4409.5161942104450645
 20
2415.2528020206959809
 30
0.0
  0
VERTEX
  5
18D4
  8
0
  6
CONTINUOUS
 62
     3
 10
4413.516194210445974
 20
2380.2528020206959809
 30
0.0
  0
SEQEND
  5
18D5
  8
0
  6
CONTINUOUS
 62
     3
  0
LINE
  5
18D6
  8
0
  6
CONTINUOUS
 62
     3
 10
4421.516194210445974
 20
2414.7528020206959809
 30
0.0
 11
4421.516194210445974
 21
2388.7528020206950714
 31
0.0
  0
POINT
  5
18D7
  8
0
  6
CONTINUOUS
 62
     3
 10
4413.516194210445974
 20
2378.553025636647817
 30
0.0
  0
LINE
  5
18D8
  8
0
  6
CONTINUOUS
 62
     3
 10
4421.516194210445974
 20
2388.7528020206950714
 30
0.0
 11
4412.5447656390024349
 21
2388.7528020206950714
 31
0.0
  0
POINT
  5
18D9
  8
0
  6
CONTINUOUS
 62
     3
 10
4413.516194210445974
 20
2377.2528020206950714
 30
0.0
  0
POINT
  5
18DA
  8
0
  6
CONTINUOUS
 62
     3
 10
4359.516194210445974
 20
2378.7528020206959809
 30
0.0
  0
LINE
  5
18DB
  8
0
  6
CONTINUOUS
 62
     3
 10
4358.016194210445974
 20
2392.2528020206959809
 30
0.0
 11
4360.8876227818545885
 21
2392.2528020206959809
 31
0.0
  0
POLYLINE
  5
18DC
  8
0
  6
CONTINUOUS
 62
     3
 66
     1
 10
0.0
 20
0.0
 30
0.0
  0
VERTEX
  5
18DD
  8
0
  6
CONTINUOUS
 62
     3
 10
4359.516194210445974
 20
2380.2528020206959809
 30
0.0
  0
VERTEX
  5
18DE
  8
0
  6
CONTINUOUS
 62
     3
 10
4359.516194210445974
 20
2377.2528020206950714
 30
0.0
  0
VERTEX
  5
18DF
  8
0
  6
CONTINUOUS
 62
     3
 10
4413.516194210445974
 20
2377.2528020206950714
 30
0.0
  0
VERTEX
  5
18E0
  8
0
  6
CONTINUOUS
 62
     3
 10
4413.516194210445974
 20
2380.2528020206959809
 30
0.0
  0
SEQEND
  5
18E1
  8
0
  6
CONTINUOUS
 62
     3
  0
LINE
  5
18E2
  8
0
  6
CONTINUOUS
 62
     3
 10
4359.266194210445974
 20
2365.7528020206959809
 30
0.0
 11
4413.7661942104450645
 21
2365.7528020206959809
 31
0.0
  0
POLYLINE
  5
18E3
  8
0
  6
CONTINUOUS
 62
     3
 66
     1
 10
0.0
 20
0.0
 30
0.0
 70
     1
  0
VERTEX
  5
18E4
  8
0
  6
CONTINUOUS
 62
     3
 10
4359.266194210445974
 20
2365.7528020206959809
 30
0.0
  0
VERTEX
  5
18E5
  8
0
  6
CONTINUOUS
 62
     3
 10
4359.266194210445974
 20
2374.2528020206950714
 30
0.0
  0
VERTEX
  5
18E6
  8
0
  6
CONTINUOUS
 62
     3
 10
4413.7661942104450645
 20
2374.2528020206950714
 30
0.0
  0
VERTEX
  5
18E7
  8
0
  6
CONTINUOUS
 62
     3
 10
4413.7661942104450645
 20
2365.7528020206959809
 30
0.0
  0
VERTEX
  5
18E8
  8
0
  6
CONTINUOUS
 62
     3
 10
4413.266194210445974
 20
2365.2528020206950714
 30
0.0
  0
VERTEX
  5
18E9
  8
0
  6
CONTINUOUS
 62
     3
 10
4359.766194210445974
 20
2365.2528020206950714
 30
0.0
  0
SEQEND
  5
18EA
  8
0
  6
CONTINUOUS
 62
     3
  0
POLYLINE
  5
18EB
  8
0
  6
CONTINUOUS
 62
     3
 66
     1
 10
0.0
 20
0.0
 30
0.0
  0
VERTEX
  5
18EC
  8
0
  6
CONTINUOUS
 62
     3
 10
4360.016194210445974
 20
2374.2528020206950714
 30
0.0
  0
VERTEX
  5
18ED
  8
0
  6
CONTINUOUS
 62
     3
 10
4360.016194210445974
 20
2376.2528020206959809
 30
0.0
  0
VERTEX
  5
18EE
  8
0
  6
CONTINUOUS
 62
     3
 10
4413.0161942104450645
 20
2376.2528020206959809
 30
0.0
  0
VERTEX
  5
18EF
  8
0
  6
CONTINUOUS
 62
     3
 10
4413.0161942104450645
 20
2374.2528020206950714
 30
0.0
  0
SEQEND
  5
18F0
  8
0
  6
CONTINUOUS
 62
     3
  0
POLYLINE
  5
18F1
  8
0
  6
CONTINUOUS
 62
     3
 66
     1
 10
0.0
 20
0.0
 30
0.0
  0
VERTEX
  5
18F2
  8
0
  6
CONTINUOUS
 62
     3
 10
4412.016194210445974
 20
2377.2528020206950714
 30
0.0
  0
VERTEX
  5
18F3
  8
0
  6
CONTINUOUS
 62
     3
 10
4412.016194210445974
 20
2376.2528020206959809
 30
0.0
  0
SEQEND
  5
18F4
  8
0
  6
CONTINUOUS
 62
     3
  0
LINE
  5
18F5
  8
0
  6
CONTINUOUS
 62
     3
 10
4605.516206150873586
 20
2386.2528020206950714
 30
0.0
 11
4603.316206150862854
 21
2386.2528020206950714
 31
0.0
  0
LINE
  5
18F6
  8
0
  6
CONTINUOUS
 62
     3
 10
4603.316206150862854
 20
2384.2528020206959809
 30
0.0
 11
4587.3162061508619445
 21
2384.2528020206959809
 31
0.0
  0
POLYLINE
  5
18F7
  8
0
  6
CONTINUOUS
 62
     3
 66
     1
 10
0.0
 20
0.0
 30
0.0
  0
VERTEX
  5
18F8
  8
0
  6
CONTINUOUS
 62
     3
 10
4585.316206150862854
 20
2388.5028020206950714
 30
0.0
  0
VERTEX
  5
18F9
  8
0
  6
CONTINUOUS
 62
     3
 10
4577.316206150862854
 20
2388.5028020206950714
 30
0.0
  0
SEQEND
  5
18FA
  8
0
  6
CONTINUOUS
 62
     3
  0
ARC
  5
18FB
  8
0
  6
CONTINUOUS
 62
     3
 10
4611.516206150873586
 20
2379.7528020206950714
 30
0.0
 40
5.9999999999996581
 50
180.0
 51
270.0
1001
GENIUS_GENREC_14
1002
{
1000
PYDIR
1011
4605.516206150873586
1021
0.0
1031
0.0
1021
2430.7528020206959809
1031
0.0
1002
}
1002
{
1000
PXDIR
1011
4611.516206150873586
1021
0.0
1031
0.0
1021
2373.7528020206959809
1031
0.0
1002
}
1002
{
1000
PORI
1011
4605.516206150873586
1021
0.0
1031
0.0
1021
2373.7528020206959809
1031
0.0
1002
}
1002
{
1000
PINS
1011
4605.516206150873586
1021
0.0
1031
0.0
1021
2373.7528020206959809
1031
0.0
1002
}
1002
{
1000
PINS2
1011
4611.516206150873586
1021
0.0
1031
0.0
1021
2430.7528020206959809
1031
0.0
1002
}
1002
{
1000
C
1070
     1
1002
}
1001
GENIUS_GENODEF_13
1002
{
1000
HIER
1070
     0
1002
}
1002
{
1000
MANEDIT
1070
     0
1002
}
1002
{
1000
NOSEL
1070
     0
1002
}
1002
{
1000
BEHIND
1070
     0
1002
}
1002
{
1000
REACTOR
1002
}
1001
GENIUS_GENOBJ-N-REC_13
1002
{
1000
OWNER
1000
GEN
1002
}
  0
ARC
  5
18FC
  8
0
  6
CONTINUOUS
 62
     3
 10
4411.8934060168676297
 20
2451.2528020206959809
 30
0.0
 40
2.0
 50
11.8886580398373098
 51
90.0
  0
LINE
  5
18FD
  8
0
  6
CONTINUOUS
 62
     3
 10
4358.0161942103877664
 20
2453.2528020206959809
 30
0.0
 11
4411.8934060168676297
 21
2453.2528020206959809
 31
0.0
  0
POLYLINE
  5
18FE
  8
0
  6
CONTINUOUS
 62
     3
 66
     1
 10
0.0
 20
0.0
 30
0.0
  0
VERTEX
  5
18FF
  8
0
  6
CONTINUOUS
 62
     3
 10
4363.5161942105041817
 20
2434.2528020206959809
 30
0.0
  0
VERTEX
  5
1900
  8
0
  6
CONTINUOUS
 62
     3
 10
4409.5161942104450645
 20
2434.2528020206959809
 30
0.0
  0
VERTEX
  5
1901
  8
0
  6
CONTINUOUS
 62
     3
 10
4409.5161942104450645
 20
2415.2528020206959809
 30
0.0
  0
SEQEND
  5
1902
  8
0
  6
CONTINUOUS
 62
     3
  0
POLYLINE
  5
1903
  8
0
  6
CONTINUOUS
 62
     3
 66
     1
 10
0.0
 20
0.0
 30
0.0
  0
VERTEX
  5
1904
  8
0
  6
CONTINUOUS
 62
     3
 10
4363.516194210445974
 20
2415.2528020206959809
 30
0.0
  0
VERTEX
  5
1905
  8
0
  6
CONTINUOUS
 62
     3
 10
4363.516194210445974
 20
2434.2528020206959809
 30
0.0
  0
SEQEND
  5
1906
  8
0
  6
CONTINUOUS
 62
     3
  0
LINE
  5
1907
  8
0
  6
CONTINUOUS
 62
     3
 10
4413.8505055868299678
 20
2451.6648229827987961
 30
0.0
 11
4421.516194210445974
 21
2415.2528020206959809
 31
0.0
  0
LINE
  5
1908
  8
0
  6
CONTINUOUS
 62
     3
 10
4603.316206150862854
 20
2418.2528020206959809
 30
0.0
 11
4605.516206150873586
 21
2418.2528020206959809
 31
0.0
  0
LINE
  5
1909
  8
0
  6
CONTINUOUS
 62
     3
 10
4585.316206150862854
 20
2418.2528020206959809
 30
0.0
 11
4587.3162061508619445
 21
2420.2528020206959809
 31
0.0
  0
LINE
  5
190A
  8
0
  6
CONTINUOUS
 62
     3
 10
4587.3162061508619445
 20
2420.2528020206959809
 30
0.0
 11
4603.316206150862854
 21
2420.2528020206959809
 31
0.0
  0
ARC
  5
190B
  8
0
  6
CONTINUOUS
 62
     3
 10
4611.516206150873586
 20
2424.7528020206959809
 30
0.0
 40
6.0000000000000311
 50
90.0
 51
180.0
1001
GENIUS_GENREC_14
1002
{
1000
PYDIR
1011
4605.516206150873586
1021
0.0
1031
0.0
1021
2430.7528020206959809
1031
0.0
1002
}
1002
{
1000
PXDIR
1011
4611.516206150873586
1021
0.0
1031
0.0
1021
2373.7528020206959809
1031
0.0
1002
}
1002
{
1000
PORI
1011
4605.516206150873586
1021
0.0
1031
0.0
1021
2373.7528020206959809
1031
0.0
1002
}
1002
{
1000
PINS
1011
4605.516206150873586
1021
0.0
1031
0.0
1021
2373.7528020206959809
1031
0.0
1002
}
1002
{
1000
PINS2
1011
4611.516206150873586
1021
0.0
1031
0.0
1021
2430.7528020206959809
1031
0.0
1002
}
1002
{
1000
C
1070
     1
1002
}
1001
GENIUS_GENODEF_13
1002
{
1000
HIER
1070
     0
1002
}
1002
{
1000
MANEDIT
1070
     0
1002
}
1002
{
1000
NOSEL
1070
     0
1002
}
1002
{
1000
BEHIND
1070
     0
1002
}
1002
{
1000
REACTOR
1002
}
1001
GENIUS_GENOBJ-N-REC_13
1002
{
1000
OWNER
1000
GEN
1002
}
  0
POLYLINE
  5
190C
  8
0
  6
CONTINUOUS
 62
     3
 66
     1
 10
0.0
 20
0.0
 30
0.0
  0
VERTEX
  5
190D
  8
0
  6
CONTINUOUS
 62
     3
 10
4577.316206150862854
 20
2389.7528020206959809
 30
0.0
  0
VERTEX
  5
190E
  8
0
  6
CONTINUOUS
 62
     3
 10
4421.516194210445974
 20
2389.7528020206959809
 30
0.0
  0
SEQEND
  5
190F
  8
0
  6
CONTINUOUS
 62
     3
  0
POLYLINE
  5
1910
  8
0
  6
CONTINUOUS
 62
     3
 66
     1
 10
0.0
 20
0.0
 30
0.0
  0
VERTEX
  5
1911
  8
0
  6
CONTINUOUS
 62
     3
 10
4421.516194210445974
 20
2414.7528020206959809
 30
0.0
  0
VERTEX
  5
1912
  8
0
  6
CONTINUOUS
 62
     3
 10
4577.316206150862854
 20
2414.7528020206959809
 30
0.0
  0
SEQEND
  5
1913
  8
0
  6
CONTINUOUS
 62
     3
  0
POLYLINE
  5
1914
  8
0
  6
CONTINUOUS
 62
     3
 66
     1
 10
0.0
 20
0.0
 30
0.0
  0
VERTEX
  5
1915
  8
0
  6
CONTINUOUS
 62
     3
 10
4577.316206150862854
 20
2388.5028020206950714
 30
0.0
  0
VERTEX
  5
1916
  8
0
  6
CONTINUOUS
 62
     3
 10
4577.316206150862854
 20
2416.0028020206959809
 30
0.0
  0
VERTEX
  5
1917
  8
0
  6
CONTINUOUS
 62
     3
 10
4585.316206150862854
 20
2416.0028020206959809
 30
0.0
  0
SEQEND
  5
1918
  8
0
  6
CONTINUOUS
 62
     3
  0
LINE
  5
1919
  8
0
  6
CENTER2
 62
     4
 10
4386.516194210445974
 20
2362.2528020206959809
 30
0.0
 11
4386.516194210445974
 21
2432.7528020206959809
 31
0.0
1001
GENIUS_GENODEF_13
1002
{
1000
HIER
1070
     0
1002
}
1002
{
1000
MANEDIT
1070
     0
1002
}
1002
{
1000
NOSEL
1070
     0
1002
}
1002
{
1000
BEHIND
1070
     0
1002
}
1002
{
1000
REACTOR
1002
}
1001
GENIUS_GENOBJ-N-CEN_13
1002
{
1000
OWNER
1000
GEN
1002
}
  0
LINE
  5
191A
  8
0
  6
CENTER2
 62
     4
 10
4611.516206150873586
 20
2402.2528020206959809
 30
0.0
 11
4355.0161942104450645
 21
2402.2528020206959809
 31
0.0
1001
GENIUS_GENODEF_13
1002
{
1000
HIER
1070
     0
1002
}
1002
{
1000
MANEDIT
1070
     0
1002
}
1002
{
1000
NOSEL
1070
     0
1002
}
1002
{
1000
BEHIND
1070
     0
1002
}
1002
{
1000
REACTOR
1002
}
1001
GENIUS_GENOBJ-N-CEN_13
1002
{
1000
OWNER
1000
GEN
1002
}
  0
LINE
  5
191B
  8
0
  6
CONTINUOUS
 62
     3
 10
4585.316206150862854
 20
2386.2528020206950714
 30
0.0
 11
4587.3162061508619445
 21
2384.2528020206959809
 31
0.0
  0
DIMENSION
  5
191C
  8
0
 62
     7
  2
*D86
 10
4386.516194210445974
 20
2137.5524203627142015
 30
0.0
 11
4504.0162073713727295
 21
2182.5524203627142015
 31
0.0
 70
     0
  1
<>
 13
4621.5162205322985756
 23
2137.5524133098078892
 33
0.0
 14
4386.516194210445974
 24
2362.2528020206959809
 34
0.0
  0
LINE
  5
191D
  8
0
  6
CONTINUOUS
 62
     4
 10
4618.0161955167995984
 20
2555.9527908377931453
 30
0.0
 11
4618.0161955167995984
 21
2499.9527908377931453
 31
0.0
  0
LINE
  5
191E
  8
0
  6
CONTINUOUS
 62
     4
 10
4615.5161955167995984
 20
2611.9527908377931453
 30
0.0
 11
4615.5161955167995984
 21
2593.9527908377931453
 31
0.0
  0
LINE
  5
191F
  8
0
  6
CONTINUOUS
 62
     4
 10
4615.5161955167995984
 20
2611.9527908377931453
 30
0.0
 11
4621.5161955167995984
 21
2611.9527908377931453
 31
0.0
  0
LINE
  5
1920
  8
0
  6
CONTINUOUS
 62
     4
 10
4615.5161955167995984
 20
2593.9527908377931453
 30
0.0
 11
4621.5161955167995984
 21
2593.9527908377931453
 31
0.0
  0
LINE
  5
1921
  8
0
  6
CONTINUOUS
 62
     4
 10
4612.5161955168578061
 20
2610.4527908377931453
 30
0.0
 11
4612.5161955169160137
 21
2595.4527908377931453
 31
0.0
  0
LINE
  5
1922
  8
0
  6
CONTINUOUS
 62
     4
 10
4612.5161955169160137
 20
2595.4527908377931453
 30
0.0
 11
4615.5161955167995984
 21
2595.4527908377931453
 31
0.0
  0
LINE
  5
1923
  8
0
  6
CONTINUOUS
 62
     4
 10
4612.5161955168578061
 20
2610.4527908377931453
 30
0.0
 11
4615.5161955167995984
 21
2610.4527908377931453
 31
0.0
  0
ARC
  5
1924
  8
0
  6
CONTINUOUS
 62
     4
 10
4619.0161955168014174
 20
2555.9527908377931453
 30
0.0
 40
1.0
 50
90.0
 51
180.0
  0
ARC
  5
1925
  8
0
  6
CONTINUOUS
 62
     4
 10
4619.0161955168014174
 20
2499.9527908377931453
 30
0.0
 40
1.0
 50
180.0
 51
270.0
  0
LINE
  5
1926
  8
0
  6
CONTINUOUS
 62
     4
 10
4619.0161955168014174
 20
2556.9527908377931453
 30
0.0
 11
4621.5162054887623526
 21
2556.9527908377931453
 31
0.0
  0
LINE
  5
1927
  8
0
  6
CONTINUOUS
 62
     4
 10
4619.0161955168014174
 20
2498.9527908377931453
 30
0.0
 11
4621.5162065433105454
 21
2498.9527908377931453
 31
0.0
  0
INSERT
  5
1928
  8
0
 62
     7
  2
A$C35C419CB
 10
506.9265738809481263
 20
2059.5007148829749895
 30
0.0
  0
INSERT
  5
1929
  8
0
 62
     7
  2
A$C35C419CB
 10
1356.9265738809478989
 20
2059.5007148829749895
 30
0.0
  0
INSERT
  5
192A
  8
0
 62
     7
  2
A$C1C185600
 10
2206.9265738808899187
 20
2059.5007148829749895
 30
0.0
  0
INSERT
  5
1931
  8
0
 62
     7
  2
A$C0FEC19CC
 10
407.9266936745261205
 20
4764.4535194005584344
 30
0.0
  0
INSERT
  5
1932
  8
0
 62
     7
  2
A$C187A0370
 10
572.9226594646461308
 20
4689.6748113202629611
 30
0.0
  0
INSERT
  5
1933
  8
0
 62
     7
  2
A$C0FEC19CC
 10
1257.92669367452595
 20
4764.4535194005584344
 30
0.0
  0
INSERT
  5
1934
  8
0
 62
     7
  2
A$C187A0370
 10
1422.9226594646459034
 20
4689.6748113202629611
 30
0.0
  0
INSERT
  5
1935
  8
0
 62
     7
  2
A$C0FEC19CC
 10
2107.9266936744679697
 20
4764.4535194005584344
 30
0.0
  0
INSERT
  5
1936
  8
0
 62
     7
  2
A$C187A0370
 10
2272.9226594645879231
 20
4689.6748113202629611
 30
0.0
  0
TEXT
  5
193B
  8
0
  6
CONTINUOUS
 62
     2
 10
6800.7557888892088158
 20
4944.7999593400736558
 30
0.0
 40
40.0
  1
アクリル系人工大理石
 41
0.5
 72
     4
 11
6919.4224555558757856
 21
4964.7999593400745653
 31
0.0
  0
TEXT
  5
193E
  8
0
  6
CONTINUOUS
 62
     2
 10
6074.4224555559339933
 20
4299.7999593400745653
 30
0.0
 40
49.9999999999999929
  1
消毒剤用ディスペンサ
 41
0.9
  0
POLYLINE
  5
193F
  8
0
  6
CONTINUOUS
 62
     3
 66
     1
 10
0.0
 20
0.0
 30
0.0
  0
VERTEX
  5
1940
  8
0
  6
CONTINUOUS
 62
     3
 10
4361.016194210445974
 20
2376.2528020206959809
 30
0.0
  0
VERTEX
  5
1941
  8
0
  6
CONTINUOUS
 62
     3
 10
4361.016194210445974
 20
2377.2528020206950714
 30
0.0
  0
SEQEND
  5
1942
  8
0
  6
CONTINUOUS
 62
     3
  0
POLYLINE
  5
1951
  8
WAKU
 62
     6
 66
     1
 10
0.0
 20
0.0
 30
0.0
  0
VERTEX
  5
246D
  8
WAKU
 62
     6
 10
0.0
 20
0.0
 30
0.0
  0
VERTEX
  5
246E
  8
WAKU
 62
     6
 10
0.0
 20
5940.0
 30
0.0
  0
VERTEX
  5
246F
  8
WAKU
 62
     6
 10
8410.0
 20
5940.0
 30
0.0
  0
VERTEX
  5
2470
  8
WAKU
 62
     6
 10
8410.0
 20
0.0
 30
0.0
  0
VERTEX
  5
2471
  8
WAKU
 62
     6
 10
0.0
 20
0.0
 30
0.0
  0
SEQEND
  5
2472
  8
WAKU
 62
     6
  0
POLYLINE
  5
1952
  8
WAKU
 62
     3
 66
     1
 10
0.0
 20
0.0
 30
0.0
 70
     1
  0
VERTEX
  5
2473
  8
WAKU
 62
     3
 10
0.0
 20
0.0
 30
0.0
  0
VERTEX
  5
2474
  8
WAKU
 62
     3
 10
0.0
 20
5680.0
 30
0.0
  0
VERTEX
  5
2475
  8
WAKU
 62
     3
 10
8130.0
 20
5680.0
 30
0.0
  0
VERTEX
  5
2476
  8
WAKU
 62
     3
 10
8130.0
 20
0.0
 30
0.0
  0
SEQEND
  5
2477
  8
WAKU
 62
     3
  0
TEXT
  5
1953
  8
WAKU
 62
     3
 10
7652.9677189187486874
 20
5699.9218150300448542
 30
0.0
 40
80.0
  1
A3-020
  0
TEXT
  5
1956
  8
0
  6
CONTINUOUS
 62
     2
 10
7074.4224555559339933
 20
4379.7999593400745653
 30
0.0
 40
49.9999999999999929
  1
三栄 U11-20X3
 41
0.8
  0
INSERT
  5
195B
  8
0
 62
     4
  2
A$C18BD6BBE
 10
2007.8117104842099252
 20
1170.2528058891180081
 30
0.0
  0
INSERT
  5
195C
  8
0
 62
     7
  2
A$C6BE53629
 10
4237.5165701871146666
 20
1115.2527748681020512
 30
0.0
  0
LINE
  5
196B
  8
0
  6
CONTINUOUS
 62
     2
 10
6489.9468767356011085
 20
3395.9360341760329902
 30
0.0
 11
7657.2635908599477261
 21
3395.9360341760329902
 31
0.0
  0
TEXT
  5
196C
  8
0
  6
CONTINUOUS
 62
     2
 10
6489.9468767356011085
 20
3409.9727137363520342
 30
0.0
 40
49.9999999998000035
  1
名　　称：3人用手洗装置（水道水対応）
  0
TEXT
  5
196D
  8
0
  6
CONTINUOUS
 62
     2
 10
6489.9468767356011085
 20
3529.9727137358859181
 30
0.0
 40
49.9999999998000035
  1
仕 様
  0
LINE
  5
196E
  8
0
  6
CONTINUOUS
 62
     2
 10
6489.9468767356011085
 20
3519.4431641199630576
 30
0.0
 11
6641.0404011624632403
 21
3519.4431641199630576
 31
0.0
  0
LINE
  5
196F
  8
0
  6
CONTINUOUS
 62
     2
 10
6489.9468767356011085
 20
3506.1098307867068797
 30
0.0
 11
6641.0404011624632403
 21
3506.1098307867068797
 31
0.0
  0
TEXT
  5
1970
  8
0
  6
CONTINUOUS
 62
     2
 10
6489.9468767356011085
 20
3289.9727137364097871
 30
0.0
 40
49.9999999999999929
  1
型　　式：MRC-SFW-3
  0
LINE
  5
1971
  8
0
  6
CONTINUOUS
 62
     2
 10
6489.9468767356011085
 20
3275.9360341760329902
 30
0.0
 11
7657.2635908599477261
 21
3275.9360341760329902
 31
0.0
  0
TEXT
  5
197A
  8
0
  6
CONTINUOUS
 62
     2
 10
6388.0287394238403067
 20
1548.6727231021500302
 30
0.0
 40
49.9999999998000035
  1
注）給水・給湯 圧力は0.15～0.3MPaで
 41
0.8
  0
TEXT
  5
197B
  8
0
  6
CONTINUOUS
 62
     2
 10
6388.0287394238403067
 20
1436.3004140562259181
 30
0.0
 40
49.9999999998000035
  1
　　給水・給湯 差圧は0.1MPa以内として下さい。
 41
0.8
  0
LINE
  5
197C
  8
0
  6
CONTINUOUS
 62
     2
 10
6388.0287394238403067
 20
1417.522988241981011
 30
0.0
 11
7651.0455434695468284
 21
1417.522988241981011
 31
0.0
  0
LINE
  5
197D
  8
0
  6
CONTINUOUS
 62
     2
 10
6388.0287394238403067
 20
1519.1653329065879916
 30
0.0
 11
7651.0455434695468284
 21
1519.1653329065879916
 31
0.0
  0
TEXT
  5
198A
  8
WAKU
  6
CONTINUOUS
 62
     2
 10
6489.9468767356011085
 20
2929.9727137365271119
 30
0.0
 40
50.0
  1
設置場所：
  0
LINE
  5
198B
  8
WAKU
  6
CONTINUOUS
 62
     2
 10
6489.9468767356011085
 20
3035.9360341761489508
 30
0.0
 11
7657.2635908599477261
 21
3035.9360341761489508
 31
0.0
  0
LINE
  5
198C
  8
WAKU
  6
CONTINUOUS
 62
     2
 10
6489.9468767356011085
 20
2915.9360341761498603
 30
0.0
 11
7657.2635908599477261
 21
2915.9360341761498603
 31
0.0
  0
TEXT
  5
198D
  8
WAKU
  6
CONTINUOUS
 62
     2
 10
6489.9468767356011085
 20
3049.9727137365262024
 30
0.0
 40
50.0
  1
台　　数：1台
  0
TEXT
  5
198E
  8
0
  6
CONTINUOUS
 62
     2
 10
6489.9468767356011085
 20
3169.9727137363520342
 30
0.0
 40
50.0
  1
運転重量：365kg
  0
LINE
  5
198F
  8
0
  6
CONTINUOUS
 62
     2
 10
6489.9468767356011085
 20
3155.9360341760329902
 30
0.0
 11
7657.2635908599477261
 21
3155.9360341760329902
 31
0.0
  0
INSERT
  5
1990
  8
0
 62
     7
  2
A$C09EA1326
 10
1171.9266896258920951
 20
4775.4535145172849298
 30
0.0
  0
INSERT
  5
1991
  8
0
 62
     7
  2
A$C09EA1326
 10
2021.9266896258338875
 20
4775.4535145172849298
 30
0.0
  0
ENDSEC
  0
EOF
